<?xml version="1.0" standalone="no"?>
<!DOCTYPE svg PUBLIC "-//W3C//DTD SVG 1.1//EN" "http://www.w3.org/Graphics/SVG/1.1/DTD/svg11.dtd" >
<svg xmlns="http://www.w3.org/2000/svg" xmlns:xlink="http://www.w3.org/1999/xlink" version="1.1">
<metadata>
Created by FontForge 20170731 at Mon Jan  9 14:38:10 2023
 By Aleksey,,,
(c) 1999-2016 Typodermic Fonts Inc.
</metadata>
<defs>
<font id="LibelSuitRg-Regular" horiz-adv-x="808" >
  <font-face 
    font-family="Libel Suit Rg"
    font-weight="400"
    font-stretch="normal"
    units-per-em="2048"
    panose-1="2 11 6 8 2 2 2 2 2 4"
    ascent="1616"
    descent="-432"
    x-height="1251"
    cap-height="1604"
    bbox="-793 -430 1548 2472"
    underline-thickness="40"
    underline-position="-312"
    unicode-range="U+0017-E000"
  />
<missing-glyph horiz-adv-x="1067" 
d="M260 1780h545q196 0 196 -170v-1706q0 -170 -196 -170h-545q-194 0 -194 170v1706q0 170 194 170zM186 1341v-79h220v65q0 38 24.5 58t65.5 20q43 0 61 -24.5t18 -86.5q0 -70 -20.5 -125.5t-73.5 -158.5q-72 -136 -98.5 -209.5t-26.5 -163.5q0 -64 19 -172h133
q3 55 5.5 90t12.5 75.5t16 60.5t30.5 68.5t40 76t59.5 104.5q79 137 109 217.5t30 167.5q0 157 -81.5 238.5t-217.5 81.5q-141 0 -233.5 -83t-92.5 -221zM440 272q-65 0 -99 -38.5t-34 -100.5t34 -101.5t99 -39.5t99 39.5t34 101.5t-34 100.5t-99 38.5z" />
    <glyph glyph-name=".notdef" horiz-adv-x="1067" 
d="M260 1780h545q196 0 196 -170v-1706q0 -170 -196 -170h-545q-194 0 -194 170v1706q0 170 194 170zM186 1341v-79h220v65q0 38 24.5 58t65.5 20q43 0 61 -24.5t18 -86.5q0 -70 -20.5 -125.5t-73.5 -158.5q-72 -136 -98.5 -209.5t-26.5 -163.5q0 -64 19 -172h133
q3 55 5.5 90t12.5 75.5t16 60.5t30.5 68.5t40 76t59.5 104.5q79 137 109 217.5t30 167.5q0 157 -81.5 238.5t-217.5 81.5q-141 0 -233.5 -83t-92.5 -221zM440 272q-65 0 -99 -38.5t-34 -100.5t34 -101.5t99 -39.5t99 39.5t34 101.5t-34 100.5t-99 38.5z" />
    <glyph glyph-name=".null" horiz-adv-x="0" 
 />
    <glyph glyph-name="nonmarkingreturn" horiz-adv-x="682" 
 />
    <glyph glyph-name="uni0017" horiz-adv-x="380" 
 />
    <glyph glyph-name="space" unicode=" " horiz-adv-x="380" 
 />
    <glyph glyph-name="exclam" unicode="!" horiz-adv-x="374" 
d="M78 1632h219l-57 -1204h-103zM186 219q53 0 81 -31.5t28 -81.5q0 -49 -28 -80.5t-81 -31.5q-50 0 -77 32t-27 80q0 50 27 81.5t77 31.5z" />
    <glyph glyph-name="quotedbl" unicode="&#x22;" horiz-adv-x="561" 
d="M336 1632h168l-23 -522h-121zM57 1632h168l-22 -522h-121z" />
    <glyph glyph-name="numbersign" unicode="#" horiz-adv-x="1062" 
d="M66 616h184l53 373h-184l20 144h185l69 471h144l-70 -471h221l70 471h143l-70 -471h185l-21 -144h-184l-53 -373h184l-20 -143h-185l-67 -473h-144l68 473h-221l-68 -473h-143l67 473h-184zM446 989l-53 -373h221l54 373h-222z" />
    <glyph glyph-name="dollar" unicode="$" horiz-adv-x="804" 
d="M375 1645h74v-205q130 -9 197 -85t67 -188v-82h-166v58q0 62 -35 94.5t-102 32.5q-69 0 -104.5 -32t-35.5 -89q0 -70 76 -152q32 -35 139 -132t146 -146q88 -109 88 -252q0 -132 -67.5 -213.5t-202.5 -93.5v-201h-74v199q-137 8 -214 84.5t-77 206.5v141l166 -43v-84
q0 -61 39 -96t114 -35q146 0 146 141q0 43 -15.5 77t-56.5 81q-48 55 -149 146.5t-135 131.5q-99 118 -99 250q0 126 75 199t206 82v205z" />
    <glyph glyph-name="percent" unicode="%" horiz-adv-x="1253" 
d="M932 1604h131l-739 -1604h-136zM1157 721v-559q0 -81 -56.5 -129.5t-142.5 -48.5q-87 0 -143.5 48.5t-56.5 129.5v559q0 81 56.5 128.5t143.5 47.5q86 0 142.5 -47.5t56.5 -128.5zM877 719v-557q0 -35 22 -54.5t59 -19.5t59.5 19.5t22.5 54.5v557q0 35 -22 53.5t-60 18.5
q-37 0 -59 -18.5t-22 -53.5zM494 1442v-559q0 -81 -56.5 -129.5t-142.5 -48.5q-87 0 -144 48.5t-57 129.5v559q0 81 57 128.5t144 47.5q86 0 142.5 -47.5t56.5 -128.5zM213 1440v-557q0 -35 22.5 -54.5t59.5 -19.5t59.5 19.5t22.5 54.5v557q0 34 -22 52.5t-60 18.5
t-60 -18.5t-22 -52.5z" />
    <glyph glyph-name="ampersand" unicode="&#x26;" horiz-adv-x="876" 
d="M262 1360v-295q0 -79 31.5 -111t107.5 -32h426v-156h-153v-494q0 -116 80 -116q36 0 71 32l31 -155q-58 -49 -143 -49q-107 0 -164 77q-81 -81 -211 -81q-113 0 -191.5 84.5t-78.5 222.5v321q0 102 33 159t100 81q-58 24 -86.5 77t-28.5 148v297q0 142 85.5 229t221.5 87
q134 0 220.5 -84t86.5 -224v-53h-165v43q0 65 -36 101t-98 36q-67 0 -103 -38.5t-36 -106.5zM498 195q-4 18 -4 57v514h-103q-79 0 -113 -35t-34 -117v-317q0 -63 36.5 -100t86.5 -37q87 0 131 35z" />
    <glyph glyph-name="quotesingle" unicode="'" horiz-adv-x="282" 
d="M57 1632h168l-22 -522h-121z" />
    <glyph glyph-name="parenleft" unicode="(" horiz-adv-x="587" 
d="M559 1964v-149q-84 -15 -131.5 -45t-73.5 -95t-26 -176v-1464q0 -111 26 -176t73.5 -95t131.5 -45v-149q-381 47 -381 463v1468q0 416 381 463z" />
    <glyph glyph-name="parenright" unicode=")" horiz-adv-x="587" 
d="M29 -430v149q84 15 131.5 45t73.5 95t26 176v1464q0 111 -26 176t-73.5 95t-131.5 45v149q381 -47 381 -463v-1468q0 -416 -381 -463z" />
    <glyph glyph-name="asterisk" unicode="*" horiz-adv-x="903" 
d="M123 1446l285 -182l-17 340h117l-16 -336l286 182l60 -102l-301 -156l301 -154l-58 -102l-284 184l16 -338h-117l17 336l-285 -186l-59 102l299 156l-301 153z" />
    <glyph glyph-name="plus" unicode="+" horiz-adv-x="1087" 
d="M467 1227h151v-375h375v-150h-375v-374h-151v374h-373v150h373v375z" />
    <glyph glyph-name="comma" unicode="," horiz-adv-x="327" 
d="M248 25l-144 -330h-65l18 411q2 52 28 82.5t77 30.5q53 0 80.5 -31.5t27.5 -78.5q0 -36 -22 -84z" />
    <glyph glyph-name="hyphen" unicode="-" horiz-adv-x="626" 
d="M55 852h514v-150h-514v150z" />
    <glyph glyph-name="period" unicode="." horiz-adv-x="327" 
d="M162 219q53 0 80.5 -31.5t27.5 -81.5q0 -49 -27.5 -80.5t-80.5 -31.5q-50 0 -77.5 32t-27.5 80q0 50 27 81.5t78 31.5z" />
    <glyph glyph-name="slash" unicode="/" horiz-adv-x="722" 
d="M559 1780h152l-547 -2026h-152z" />
    <glyph glyph-name="zero" unicode="0" horiz-adv-x="827" 
d="M743 1311v-1018q0 -147 -94 -234.5t-235 -87.5q-142 0 -236 87.5t-94 234.5v1018q0 147 94 234t236 87q141 0 235 -87t94 -234zM270 1309v-1014q0 -67 39.5 -104t104.5 -37t104 37t39 104v1014q0 67 -39 104t-104 37t-104.5 -37t-39.5 -104z" />
    <glyph glyph-name="one" unicode="1" horiz-adv-x="485" 
d="M31 1470h78q94 0 94 134h188v-1604h-188v1313h-172v157z" />
    <glyph glyph-name="two" unicode="2" horiz-adv-x="743" 
d="M379 1632q149 0 233 -86.5t84 -267.5q0 -82 -17.5 -142t-55.5 -128q-38 -63 -143.5 -215t-143.5 -213q-45 -75 -59.5 -126t-14.5 -139v-133h434v-182h-622v315q0 172 82 316q36 63 147 216.5t146 213.5q61 106 61 223q0 90 -33.5 128t-101.5 38t-105 -35.5t-37 -103.5
v-49h-174v53q0 149 84.5 233t235.5 84z" />
    <glyph glyph-name="three" unicode="3" horiz-adv-x="788" 
d="M379 1632q155 0 239 -95.5t84 -250.5v-223q0 -97 -28.5 -152t-87.5 -80q67 -26 101 -84.5t34 -160.5v-299q0 -143 -94.5 -229.5t-237.5 -86.5q-142 0 -231.5 86t-89.5 232v82l174 -45v-33q0 -68 39 -103.5t106 -35.5q69 0 108.5 35.5t39.5 103.5v295q0 86 -33 121.5
t-115 35.5h-113v162h101q78 0 110.5 33.5t32.5 116.5v231q0 162 -141 162q-135 0 -135 -147v-41h-174v53q0 147 84 232t227 85z" />
    <glyph glyph-name="four" unicode="4" horiz-adv-x="798" 
d="M473 1604h174v-899h107v-185h-107v-520h-174v520h-428v172l199 602h166l-195 -589h258v899z" />
    <glyph glyph-name="five" unicode="5" horiz-adv-x="778" 
d="M113 1604h575v-183h-416l-26 -270q95 70 211 70q241 0 241 -287v-645q0 -144 -90 -231t-225 -87q-137 0 -229.5 87t-92.5 231v82l175 -45v-33q0 -66 38.5 -102.5t98.5 -36.5q63 0 101 36.5t38 102.5v643q0 123 -113 123q-112 0 -180 -105l-151 52z" />
    <glyph glyph-name="six" unicode="6" horiz-adv-x="804" 
d="M270 1311v-273q88 78 201 78q110 0 180 -74.5t70 -216.5v-536q0 -144 -92.5 -231t-229.5 -87q-135 0 -225 87t-90 231v1026q0 146 90.5 231.5t235.5 85.5q143 0 227 -85t84 -232v-53h-174v49q0 68 -35.5 103.5t-99.5 35.5q-66 0 -104 -35.5t-38 -103.5zM422 944
q-87 0 -152 -78v-573q0 -67 37.5 -103t100.5 -36t101 36t38 103v495q0 156 -125 156z" />
    <glyph glyph-name="seven" unicode="7" horiz-adv-x="669" 
d="M45 1604h580v-162l-310 -1442h-196l330 1421h-404v183z" />
    <glyph glyph-name="eight" unicode="8" horiz-adv-x="794" 
d="M76 1092v194q0 155 82.5 250.5t234.5 95.5q151 0 233.5 -96t82.5 -250v-194q0 -198 -129 -258q147 -56 147 -263v-284q0 -144 -93.5 -230t-240.5 -86q-148 0 -242 86t-94 230v284q0 208 148 263q-129 58 -129 258zM231 592v-285q0 -77 45 -118.5t117 -41.5t117 41.5
t45 118.5v285q0 84 -40 121t-122 37q-84 0 -123 -36.5t-39 -121.5zM248 1294v-243q0 -81 34 -114.5t111 -33.5q76 0 110 33.5t34 114.5v243q0 76 -36.5 119t-107.5 43q-72 0 -108.5 -42.5t-36.5 -119.5z" />
    <glyph glyph-name="nine" unicode="9" horiz-adv-x="804" 
d="M393 154q66 0 104 35.5t38 103.5v325q-83 -77 -201 -77q-110 0 -180 74t-70 216v484q0 144 92 230.5t230 86.5q136 0 225.5 -86.5t89.5 -230.5v-1026q0 -146 -90.5 -232t-235.5 -86q-143 0 -227 85.5t-84 232.5v82l174 -45v-33q0 -68 35.5 -103.5t99.5 -35.5zM258 1311
v-443q0 -155 125 -155q86 0 152 78v520q0 67 -37.5 103t-100.5 36t-101 -36t-38 -103z" />
    <glyph glyph-name="colon" unicode=":" horiz-adv-x="421" 
d="M209 903q53 0 80.5 -31t27.5 -81q0 -49 -27.5 -81t-80.5 -32q-50 0 -77.5 32.5t-27.5 80.5q0 49 27 80.5t78 31.5zM209 322q53 0 80.5 -31.5t27.5 -81.5q0 -49 -27.5 -81t-80.5 -32q-50 0 -77.5 32.5t-27.5 80.5q0 50 27 81.5t78 31.5z" />
    <glyph glyph-name="semicolon" unicode=";" horiz-adv-x="421" 
d="M295 127l-143 -330h-66l18 412q2 52 28 82.5t77 30.5q53 0 80.5 -32t27.5 -79q0 -36 -22 -84zM209 903q53 0 80.5 -31t27.5 -81q0 -49 -27.5 -81t-80.5 -32q-50 0 -77.5 32.5t-27.5 80.5q0 49 27 80.5t78 31.5z" />
    <glyph glyph-name="less" unicode="&#x3c;" horiz-adv-x="1087" 
d="M94 850l899 330v-156l-723 -248l723 -248v-155l-899 329v148z" />
    <glyph glyph-name="equal" unicode="=" horiz-adv-x="1087" 
d="M94 1055h899v-150h-899v150zM94 647h899v-149h-899v149z" />
    <glyph glyph-name="greater" unicode="&#x3e;" horiz-adv-x="1087" 
d="M993 702l-899 -329v155l723 248l-723 248v156l899 -330v-148z" />
    <glyph glyph-name="question" unicode="?" horiz-adv-x="731" 
d="M379 1645q136 0 217.5 -81.5t81.5 -238.5q0 -91 -31.5 -173t-111.5 -218q-107 -185 -135 -268t-31 -238h-107q-12 82 -12 145q0 102 30.5 186t110.5 230q61 109 85 173t24 141q0 85 -33 123t-100 38q-66 0 -107 -35t-41 -98v-69h-166v79q0 138 92.5 221t233.5 83z
M317 219q52 0 79.5 -31.5t27.5 -81.5q0 -48 -27.5 -80t-79.5 -32t-79 31.5t-27 80.5q0 50 27 81.5t79 31.5z" />
    <glyph glyph-name="at" unicode="@" horiz-adv-x="1404" 
d="M827 948l109 33v-715q0 -41 17 -60.5t59 -19.5q110 0 164.5 124t54.5 354q0 667 -471 667q-187 0 -320 -100t-198.5 -276.5t-65.5 -413.5q0 -582 399 -817l-55 -111q-457 265 -457 928q0 161 26.5 298t82.5 250t138.5 192.5t198 123t257.5 43.5q298 0 435.5 -190
t137.5 -566q0 -295 -81.5 -456.5t-243.5 -161.5q-123 0 -168 86q-76 -86 -172 -86q-74 0 -122 53t-48 152v471q0 98 48 151t120 53q88 0 155 -67v61zM616 737v-446q0 -52 18 -78.5t64 -26.5q74 0 129 74v506q-63 76 -133 76q-78 0 -78 -105z" />
    <glyph glyph-name="A" unicode="A" 
d="M307 1604h187l278 -1604h-182l-37 231h-299l-35 -231h-182zM401 1192l-122 -803h249z" />
    <glyph glyph-name="B" unicode="B" horiz-adv-x="823" 
d="M94 1604h326q148 0 232.5 -84.5t84.5 -233.5v-223q0 -97 -28.5 -152t-87.5 -80q67 -26 101 -84.5t34 -160.5v-256q0 -157 -85.5 -243.5t-234.5 -86.5h-342v1604zM279 745v-567h143q147 0 147 164v246q0 87 -33 122t-114 35h-143zM279 1425v-518h131q78 0 110.5 33.5
t32.5 116.5v207q0 161 -147 161h-127z" />
    <glyph glyph-name="C" unicode="C" horiz-adv-x="776" 
d="M270 1311v-1018q0 -67 37.5 -103t100.5 -36t101 36t38 103v33l174 45v-82q0 -144 -92.5 -231t-229.5 -87q-135 0 -225 87t-90 231v1026q0 146 90.5 231.5t235.5 85.5q143 0 227 -85t84 -232v-53h-174v49q0 68 -35.5 103.5t-99.5 35.5q-66 0 -104 -35.5t-38 -103.5z" />
    <glyph glyph-name="D" unicode="D" horiz-adv-x="829" 
d="M94 1604h332q151 0 235 -93t84 -276v-866q0 -183 -84 -276t-235 -93h-332v1604zM283 1421v-1239h129q147 0 147 174v891q0 174 -147 174h-129z" />
    <glyph glyph-name="E" unicode="E" horiz-adv-x="684" 
d="M94 1604h531v-183h-342v-503h241v-183h-241v-553h342v-182h-531v1604z" />
    <glyph glyph-name="F" unicode="F" horiz-adv-x="688" 
d="M94 1604h553v-183h-364v-557h268v-182h-268v-682h-189v1604z" />
    <glyph glyph-name="G" unicode="G" horiz-adv-x="804" 
d="M266 1311v-1018q0 -67 37 -103t100 -36q64 0 106 36.5t42 102.5v426h-160v170h324v-889h-117l-8 70q-89 -99 -221 -99q-125 0 -205 86.5t-80 231.5v1026q0 145 90.5 231t233.5 86q142 0 227.5 -85t85.5 -232v-53h-174v49q0 67 -37 103t-100 36q-66 0 -105 -36t-39 -103z
" />
    <glyph glyph-name="H" unicode="H" horiz-adv-x="849" 
d="M94 1604h189v-699h284v699h189v-1604h-189v725h-284v-725h-189v1604z" />
    <glyph glyph-name="I" unicode="I" horiz-adv-x="376" 
d="M94 1604h189v-1604h-189v1604z" />
    <glyph glyph-name="J" unicode="J" horiz-adv-x="768" 
d="M492 1604h186v-1315q0 -145 -89.5 -231.5t-230.5 -86.5t-229 86t-88 232v82l174 -45v-33q0 -67 37 -103t100 -36q65 0 102.5 36t37.5 103v1311z" />
    <glyph glyph-name="K" unicode="K" horiz-adv-x="792" 
d="M549 1604h192l-299 -656l324 -948h-197l-286 866v-866h-189v1604h189v-596z" />
    <glyph glyph-name="L" unicode="L" horiz-adv-x="624" 
d="M94 1604h189v-1422h301v-182h-490v1604z" />
    <glyph glyph-name="M" unicode="M" horiz-adv-x="1095" 
d="M94 1604h205l250 -1272l264 1272h188v-1604h-167v1034l-197 -1034h-174l-201 1049v-1049h-168v1604z" />
    <glyph glyph-name="N" unicode="N" horiz-adv-x="829" 
d="M94 1604h205l272 -1106v1106h164v-1604h-168l-309 1180v-1180h-164v1604z" />
    <glyph glyph-name="O" unicode="O" horiz-adv-x="827" 
d="M743 1311v-1018q0 -147 -94 -234.5t-235 -87.5q-142 0 -236 87.5t-94 234.5v1018q0 147 94 234t236 87q141 0 235 -87t94 -234zM270 1309v-1014q0 -67 39.5 -104t104.5 -37t104 37t39 104v1014q0 67 -39 104t-104 37t-104.5 -37t-39.5 -104z" />
    <glyph glyph-name="P" unicode="P" 
d="M94 1604h332q151 0 235 -93t84 -276v-234q0 -183 -84 -275.5t-235 -92.5h-143v-633h-189v1604zM283 1421v-606h129q147 0 147 174v258q0 174 -147 174h-129z" />
    <glyph glyph-name="Q" unicode="Q" horiz-adv-x="827" 
d="M743 1311v-1002q0 -124 -67 -207l139 -184l-133 -100l-143 190q-65 -20 -125 -20q-142 0 -236 87t-94 234v1002q0 147 94 234t236 87q141 0 235 -87t94 -234zM270 1309v-1010q0 -67 39.5 -104t104.5 -37t104 37t39 104v1010q0 67 -39 104t-104 37t-104.5 -37t-39.5 -104z
" />
    <glyph glyph-name="R" unicode="R" horiz-adv-x="827" 
d="M94 1604h326q148 0 232.5 -84.5t84.5 -233.5v-223q0 -93 -27.5 -147.5t-84.5 -79.5q125 -52 125 -234v-602h-187v608q0 77 -31 108.5t-114 31.5h-139v-748h-185v1604zM279 1425v-516h127q82 0 114.5 33.5t32.5 112.5v209q0 78 -37.5 119.5t-109.5 41.5h-127z" />
    <glyph glyph-name="S" unicode="S" horiz-adv-x="770" 
d="M391 1632q143 0 226 -86t83 -227v-57h-174v43q0 70 -37 110.5t-102 40.5q-72 0 -109.5 -48.5t-37.5 -123.5q0 -101 84 -221q23 -31 88.5 -117t120.5 -162t88 -129q48 -76 69 -144.5t21 -154.5q0 -182 -81 -283.5t-241 -101.5q-154 0 -246 89.5t-92 224.5v86l174 -45v-39
q0 -60 41.5 -102t110.5 -42q75 0 114 49t39 140q0 116 -79 239q-26 40 -125 166t-140 191q-120 189 -120 358q0 159 88.5 252.5t236.5 93.5z" />
    <glyph glyph-name="T" unicode="T" horiz-adv-x="630" 
d="M41 1604h549v-183h-180v-1421h-189v1421h-180v183z" />
    <glyph glyph-name="U" unicode="U" horiz-adv-x="839" 
d="M90 1604h189v-1309q0 -67 39 -104t102 -37q66 0 105.5 36.5t39.5 104.5v1309h185v-1311q0 -147 -94.5 -234.5t-237.5 -87.5q-142 0 -235 87.5t-93 234.5v1311z" />
    <glyph glyph-name="V" unicode="V" 
d="M37 1604h184l182 -1192l187 1192h182l-276 -1604h-187z" />
    <glyph glyph-name="W" unicode="W" horiz-adv-x="1181" 
d="M45 1604h180l99 -1129l174 1129h180l162 -1135l114 1135h183l-183 -1604h-188l-178 1208l-195 -1208h-182z" />
    <glyph glyph-name="X" unicode="X" horiz-adv-x="835" 
d="M602 1604h182l-274 -770l299 -834h-199l-204 586l-201 -586h-178l284 852l-262 752h191l178 -508z" />
    <glyph glyph-name="Y" unicode="Y" horiz-adv-x="843" 
d="M27 1604h190l207 -623l211 623h182l-301 -854v-750h-188v750z" />
    <glyph glyph-name="Z" unicode="Z" horiz-adv-x="737" 
d="M66 1604h614v-146l-430 -1276h430v-182h-623v174l428 1247h-419v183z" />
    <glyph glyph-name="bracketleft" unicode="[" horiz-adv-x="587" 
d="M178 1964h381v-149h-231v-2096h231v-149h-381v2394z" />
    <glyph glyph-name="backslash" unicode="\" horiz-adv-x="708" 
d="M12 1780h152l547 -2026h-152z" />
    <glyph glyph-name="bracketright" unicode="]" horiz-adv-x="587" 
d="M410 -430h-381v149h231v2096h-231v149h381v-2394z" />
    <glyph glyph-name="asciicircum" unicode="^" horiz-adv-x="927" 
d="M389 1604h148l329 -899h-155l-248 722l-248 -722h-156z" />
    <glyph glyph-name="underscore" unicode="_" horiz-adv-x="870" 
d="M0 -135h877v-121h-877v121z" />
    <glyph glyph-name="grave" unicode="`" horiz-adv-x="555" 
d="M154 1673h198l180 -323h-161z" />
    <glyph glyph-name="a" unicode="a" horiz-adv-x="786" 
d="M209 1004l-100 124q44 65 122 102.5t168 37.5q145 0 221 -92.5t76 -247.5v-928h-114l-33 70q-103 -86 -230 -86q-54 0 -99.5 17.5t-83.5 54t-59.5 101t-21.5 150.5q0 135 59.5 233t198.5 203q94 68 211 142v39q0 81 -38 128.5t-111 47.5q-52 0 -95.5 -25.5t-70.5 -70.5z
M373 156q80 0 151 71v482q-82 -52 -121 -82q-92 -71 -128.5 -140.5t-36.5 -152.5q0 -178 135 -178z" />
    <glyph glyph-name="b" unicode="b" 
d="M94 1624l182 45v-473q91 72 201 72t184 -78.5t74 -224.5v-678q0 -146 -74 -224.5t-184 -78.5q-130 0 -227 94l-31 -78h-125v1624zM426 1087q-82 0 -150 -71v-780q69 -72 150 -72q127 0 127 162v600q0 161 -127 161z" />
    <glyph glyph-name="c" unicode="c" horiz-adv-x="757" 
d="M260 954v-657q0 -63 36 -98t95 -35q60 0 96.5 35t36.5 98v76l166 43v-129q0 -138 -87 -220.5t-218 -82.5q-129 0 -215 82.5t-86 220.5v678q0 138 86 220.5t215 82.5q131 0 218 -82.5t87 -220.5v-54h-166v43q0 63 -36.5 98t-96.5 35q-59 0 -95 -35t-36 -98z" />
    <glyph glyph-name="d" unicode="d" horiz-adv-x="819" 
d="M543 1624l182 45v-1669h-125l-31 78q-100 -94 -227 -94q-110 0 -184 78.5t-74 224.5v678q0 146 74 224.5t184 78.5q107 0 201 -72v428zM266 926v-600q0 -162 127 -162q81 0 150 72v780q-68 71 -150 71q-127 0 -127 -161z" />
    <glyph glyph-name="e" unicode="e" horiz-adv-x="768" 
d="M494 561q-94 -81 -234 -168v-100q0 -63 36 -98t95 -35q60 0 96.5 35t36.5 98v80l166 43v-129q0 -138 -87 -220.5t-218 -82.5q-129 0 -215 82.5t-86 220.5v678q0 138 86 220.5t217 82.5q59 0 110.5 -17t97.5 -53.5t72.5 -103t26.5 -156.5q0 -114 -47 -202t-153 -175z
M260 956v-387q91 60 141 107q63 58 90 116.5t27 133.5q0 91 -37 132.5t-96 41.5t-92 -38.5t-33 -105.5z" />
    <glyph glyph-name="f" unicode="f" horiz-adv-x="632" 
d="M25 1251h139v111q0 146 73.5 235t211.5 89q95 0 172 -41l-50 -160q-51 33 -102 33q-64 0 -97.5 -42.5t-33.5 -115.5v-109h207v-153h-207v-1098h-174v1098h-139v153z" />
    <glyph glyph-name="g" unicode="g" horiz-adv-x="802" 
d="M86 633v332q0 138 88.5 220.5t222.5 82.5q96 0 166 -43l228 12l-103 -158q21 -61 21 -114v-332q0 -137 -89.5 -220t-222.5 -83q-37 0 -71 6q-50 -41 -50 -98q0 -86 105 -86h358l-71 -156h-351q-124 0 -124 -96q0 -42 26.5 -69.5t75.5 -27.5h287l-72 -153h-250
q-120 0 -187 70t-67 171q0 76 39 136t113 90q-29 43 -29 102q0 97 90 158q-63 37 -98 103.5t-35 152.5zM258 963v-328q0 -66 38 -101.5t101 -35.5q62 0 101 36t39 101v328q0 67 -38.5 102t-101.5 35q-64 0 -101.5 -35t-37.5 -102z" />
    <glyph glyph-name="h" unicode="h" horiz-adv-x="825" 
d="M94 1624l182 45v-467q87 66 197 66q114 0 188 -78t74 -225v-965h-182v926q0 161 -131 161q-78 0 -146 -65v-1022h-182v1624z" />
    <glyph glyph-name="i" unicode="i" horiz-adv-x="370" 
d="M94 1251h182v-1251h-182v1251zM182 1651q53 0 81 -31.5t28 -79.5q0 -50 -28 -82.5t-81 -32.5q-50 0 -77 32.5t-27 82.5q0 48 27 79.5t77 31.5z" />
    <glyph glyph-name="j" unicode="j" horiz-adv-x="397" 
d="M127 1251h176v-1304q0 -91 -28 -161.5t-92.5 -115.5t-159.5 -45q-101 0 -168 49l49 158q46 -35 92 -35q60 0 95.5 40.5t35.5 109.5v1304zM215 1651q53 0 81 -31.5t28 -79.5q0 -50 -28 -82.5t-81 -32.5q-50 0 -77 32.5t-27 82.5q0 48 27 79.5t77 31.5z" />
    <glyph glyph-name="k" unicode="k" horiz-adv-x="768" 
d="M530 1251h187l-287 -512l311 -739h-188l-277 674v-674h-182v1624l182 45v-883z" />
    <glyph glyph-name="l" unicode="l" horiz-adv-x="370" 
d="M94 1624l182 45v-1669h-182v1624z" />
    <glyph glyph-name="m" unicode="m" horiz-adv-x="1251" 
d="M94 1251h125l29 -69q95 86 215 86q134 0 205 -109q47 52 109.5 80.5t127.5 28.5q111 0 183.5 -78t72.5 -225v-965h-182v926q0 161 -125 161q-74 0 -139 -65q4 -36 4 -57v-965h-182v926q0 161 -125 161q-75 0 -136 -61v-1026h-182v1251z" />
    <glyph glyph-name="n" unicode="n" horiz-adv-x="825" 
d="M94 1251h125l29 -71q97 88 225 88q114 0 188 -78t74 -225v-965h-182v926q0 161 -131 161q-78 0 -146 -65v-1022h-182v1251z" />
    <glyph glyph-name="o" unicode="o" horiz-adv-x="790" 
d="M707 965v-678q0 -137 -89.5 -220t-222.5 -83q-134 0 -222.5 82.5t-88.5 220.5v678q0 138 88.5 220.5t222.5 82.5q133 0 222.5 -83t89.5 -220zM260 954v-657q0 -63 37.5 -98t97.5 -35t96.5 35t36.5 98v657q0 63 -36.5 98t-96.5 35t-97.5 -35t-37.5 -98z" />
    <glyph glyph-name="p" unicode="p" horiz-adv-x="819" 
d="M94 1251h125l31 -77q97 94 227 94q110 0 184 -78.5t74 -224.5v-678q0 -146 -74 -224.5t-184 -78.5q-115 0 -201 71v-405h-182v1601zM426 1087q-82 0 -150 -71v-780q69 -72 150 -72q127 0 127 162v600q0 161 -127 161z" />
    <glyph glyph-name="q" unicode="q" horiz-adv-x="819" 
d="M600 1251h125v-1601h-182v405q-89 -71 -201 -71q-110 0 -184 78.5t-74 224.5v678q0 146 74 224.5t184 78.5q127 0 227 -94zM266 926v-600q0 -162 127 -162q81 0 150 72v780q-68 71 -150 71q-127 0 -127 -161z" />
    <glyph glyph-name="r" unicode="r" horiz-adv-x="638" 
d="M616 1214l-51 -161q-56 34 -114 34q-104 0 -175 -106v-981h-182v1251h125l35 -104q80 121 211 121q88 0 151 -54z" />
    <glyph glyph-name="s" unicode="s" horiz-adv-x="747" 
d="M383 1268q149 0 225 -77t76 -198v-82h-166v58q0 62 -35 94.5t-102 32.5q-69 0 -104 -32t-35 -89q0 -71 75 -152q32 -35 139 -132t146 -146q88 -109 88 -252t-78.5 -226t-236.5 -83q-150 0 -235 77t-85 213v142l166 -43v-84q0 -61 39.5 -96t114.5 -35q145 0 145 141
q0 43 -15 77t-56 81q-48 55 -149.5 146.5t-135.5 131.5q-98 117 -98 250q0 135 85 209t232 74z" />
    <glyph glyph-name="t" unicode="t" horiz-adv-x="630" 
d="M25 1251h135v219l176 74v-293h209v-153h-209v-791q0 -70 36 -110.5t97 -40.5q49 0 92 32l49 -155q-67 -49 -170 -49q-140 0 -210 90.5t-70 232.5v791h-135v153z" />
    <glyph glyph-name="u" unicode="u" horiz-adv-x="817" 
d="M541 1251h182v-1251h-125l-31 70q-92 -86 -217 -86q-112 0 -186 78t-74 225v964h182v-925q0 -162 129 -162q74 0 140 63v1024z" />
    <glyph glyph-name="v" unicode="v" horiz-adv-x="774" 
d="M39 1251h176l170 -929l178 929h174l-264 -1251h-178z" />
    <glyph glyph-name="w" unicode="w" horiz-adv-x="1110" 
d="M45 1251h170l90 -882l164 882h168l151 -884l105 884h172l-170 -1251h-178l-166 944l-180 -944h-172z" />
    <glyph glyph-name="x" unicode="x" horiz-adv-x="854" 
d="M614 1251h189l-281 -600l305 -651h-202l-211 457l-205 -457h-182l292 664l-270 587h195l182 -395z" />
    <glyph glyph-name="y" unicode="y" horiz-adv-x="817" 
d="M541 1251h182v-1601h-182v418q-85 -64 -191 -64q-112 0 -186 78t-74 225v944h182v-905q0 -162 129 -162q73 0 140 64v1003z" />
    <glyph glyph-name="z" unicode="z" horiz-adv-x="712" 
d="M63 1251h594v-127l-409 -970h409v-154h-602v150l410 948h-402v153z" />
    <glyph glyph-name="braceleft" unicode="{" horiz-adv-x="587" 
d="M559 1964v-149q-100 0 -132 -32t-32 -134v-707q0 -67 -40 -116t-85 -56q44 -6 84.5 -62t40.5 -124v-699q0 -103 31.5 -134.5t132.5 -31.5v-149q-87 0 -143.5 14.5t-96 50t-56.5 96.5t-17 154v684q0 123 -107 123h-73v148h73q56 0 81.5 28.5t25.5 87.5v693q0 93 17 154
t56.5 96.5t96 50t143.5 14.5z" />
    <glyph glyph-name="bar" unicode="|" horiz-adv-x="505" 
d="M178 1862h150v-2190h-150v2190z" />
    <glyph glyph-name="braceright" unicode="}" horiz-adv-x="587" 
d="M29 -430v149q100 0 132 32t32 134v707q0 68 39.5 116.5t84.5 55.5q-44 6 -84 61.5t-40 124.5v699q0 103 -31.5 134.5t-132.5 31.5v149q87 0 143.5 -14.5t96 -50t56.5 -96.5t17 -154v-684q0 -123 107 -123h73v-148h-73q-56 0 -81.5 -28.5t-25.5 -87.5v-693q0 -93 -17 -154
t-56.5 -96.5t-96 -50t-143.5 -14.5z" />
    <glyph glyph-name="asciitilde" unicode="~" horiz-adv-x="1087" 
d="M94 596v176q86 123 248 123q91 0 219 -47q113 -45 187 -45q80 0 138.5 38t106.5 113v-176q-44 -61 -101.5 -93t-146.5 -32q-92 0 -219 49q-114 43 -186 43q-81 0 -140 -37t-106 -112z" />
    <glyph glyph-name="nbspace" unicode="&#xa0;" horiz-adv-x="380" 
 />
    <glyph glyph-name="exclamdown" unicode="&#xa1;" horiz-adv-x="374" 
d="M285 -279h-219l57 1205h102zM176 1135q-53 0 -80.5 31t-27.5 81q0 49 27.5 81t80.5 32q50 0 77.5 -32.5t27.5 -80.5q0 -49 -27 -80.5t-78 -31.5z" />
    <glyph glyph-name="cent" unicode="&#xa2;" horiz-adv-x="804" 
d="M274 1128v-657q0 -63 36.5 -98t95.5 -35q60 0 96.5 35t36.5 98v76l166 43v-129q0 -127 -75 -208t-192 -93v-201h-73v201q-117 11 -192 91.5t-75 209.5v678q0 127 75 208t192 93v205h73v-205q117 -12 192 -93t75 -208v-54h-166v43q0 63 -36.5 98.5t-96.5 35.5
q-59 0 -95.5 -35.5t-36.5 -98.5z" />
    <glyph glyph-name="sterling" unicode="&#xa3;" horiz-adv-x="894" 
d="M63 965h111v350q0 146 90.5 231.5t235.5 85.5q143 0 227 -85t84 -232v-53h-174v49q0 68 -35.5 103.5t-99.5 35.5q-66 0 -104 -35.5t-38 -103.5v-346h381v-150h-381v-633h431v-182h-709v182h92v633h-111v150z" />
    <glyph glyph-name="currency" unicode="&#xa4;" horiz-adv-x="1431" 
d="M162 1436l231 -234q126 123 322 123q194 0 321 -121l234 234l106 -107l-252 -252q39 -86 39 -190v-223q0 -107 -41 -191l254 -254l-106 -104l-236 233q-126 -117 -319 -117t-318 119l-235 -235l-107 106l254 254q-39 86 -39 189v223q0 107 37 188l-252 254zM406 866v-178
q0 -137 87.5 -219t221.5 -82q135 0 224 82t89 219v178q0 138 -89 221.5t-224 83.5q-133 0 -221 -83.5t-88 -221.5z" />
    <glyph glyph-name="yen" unicode="&#xa5;" horiz-adv-x="1011" 
d="M55 381h355v166h-355v121h355v82l-301 854h190l207 -623l211 623h182l-301 -854v-82h356v-121h-356v-166h356v-121h-356v-260h-188v260h-355v121z" />
    <glyph glyph-name="brokenbar" unicode="&#xa6;" horiz-adv-x="505" 
d="M178 1862h150v-961h-150v961zM178 633h150v-961h-150v961z" />
    <glyph glyph-name="section" unicode="&#xa7;" horiz-adv-x="794" 
d="M436 1632q125 0 197 -74.5t72 -197.5v-51h-152v39q0 61 -31.5 96t-89.5 35q-62 0 -94.5 -42.5t-32.5 -107.5q0 -91 72 -192q22 -33 122 -165t136 -190q42 -68 61 -127.5t19 -134.5q0 -250 -166 -313q61 -96 83.5 -161t22.5 -142q0 -158 -70.5 -246t-209.5 -88
q-133 0 -213 77.5t-80 194.5v76l151 -41v-33q0 -52 35.5 -88.5t96.5 -36.5q65 0 99 43t34 121q0 103 -70 209q-24 36 -108.5 145t-120.5 164q-105 163 -105 314q0 106 47 179t131 103q-118 174 -118 334q0 138 77 219.5t205 81.5zM317 520q4 -7 136 -182q104 18 104 162
q0 103 -70 209q-20 30 -61.5 84t-52.5 69q-59 -3 -93 -45.5t-34 -103.5q0 -93 71 -193z" />
    <glyph glyph-name="dieresis" unicode="&#xa8;" horiz-adv-x="669" 
d="M504 1651q53 0 80.5 -31t27.5 -80q0 -50 -27.5 -82.5t-80.5 -32.5q-50 0 -77.5 32.5t-27.5 82.5q0 48 27.5 79.5t77.5 31.5zM162 1651q53 0 80.5 -31t27.5 -80q0 -50 -27.5 -82.5t-80.5 -32.5q-50 0 -77.5 32.5t-27.5 82.5q0 48 27.5 79.5t77.5 31.5z" />
    <glyph glyph-name="copyright" unicode="&#xa9;" horiz-adv-x="1538" 
d="M90 629v340q0 151 52.5 277t143.5 210t214.5 130t265.5 46q190 0 344 -78.5t246 -231t92 -353.5v-340q0 -149 -53.5 -273.5t-145.5 -208t-216.5 -130t-266.5 -46.5t-265.5 46.5t-214.5 130t-143.5 208t-52.5 273.5zM170 969v-340q0 -173 80 -306t215 -202.5t301 -69.5
t302 69.5t217 202.5t81 306v340q0 132 -47 242t-128.5 184t-191 114.5t-233.5 40.5t-233 -40.5t-189.5 -114.5t-127 -184t-46.5 -242zM672 1149v-672q0 -43 24.5 -67.5t65.5 -24.5q42 0 67 24t25 68v23l115 28v-53q0 -94 -60.5 -151.5t-150.5 -57.5t-149.5 57t-59.5 152v678
q0 95 60 152t155 57q94 0 149.5 -56.5t55.5 -152.5v-35h-115v31q0 45 -23 68.5t-65 23.5q-44 0 -69 -23.5t-25 -68.5z" />
    <glyph glyph-name="ordfeminine" unicode="&#xaa;" horiz-adv-x="624" 
d="M195 1458l-74 84q28 42 77.5 66t108.5 24q94 0 141.5 -59t47.5 -158v-596h-86l-17 37q-62 -49 -139 -49q-73 0 -120.5 51t-47.5 158q0 82 33 145.5t108 124.5q67 52 148 100v25q0 52 -18 76t-64 24q-61 0 -98 -53zM295 930q41 0 80 33v294q-38 -23 -72 -53
q-50 -40 -69 -78t-19 -90q0 -57 20 -81.5t60 -24.5z" />
    <glyph glyph-name="guillemotleft" unicode="&#xab;" horiz-adv-x="763" 
d="M563 1251h162l-215 -626l215 -625h-162l-213 625zM250 1251h162l-215 -626l215 -625h-162l-213 625z" />
    <glyph glyph-name="logicalnot" unicode="&#xac;" horiz-adv-x="1087" 
d="M94 874h897v-874h-149v725h-748v149z" />
    <glyph glyph-name="softhyphen" unicode="&#xad;" horiz-adv-x="626" 
d="M55 852h514v-150h-514v150z" />
    <glyph glyph-name="registered" unicode="&#xae;" horiz-adv-x="1538" 
d="M90 629v340q0 151 52.5 277t143.5 210t214.5 130t265.5 46q190 0 344 -78.5t246 -231t92 -353.5v-340q0 -149 -53.5 -273.5t-145.5 -208t-216.5 -130t-266.5 -46.5t-265.5 46.5t-214.5 130t-143.5 208t-52.5 273.5zM170 969v-340q0 -173 80 -306t215 -202.5t301 -69.5
t302 69.5t217 202.5t81 306v340q0 132 -47 242t-128.5 184t-191 114.5t-233.5 40.5t-233 -40.5t-189.5 -114.5t-127 -184t-46.5 -242zM555 1343h215q98 0 154.5 -56t56.5 -154v-146q0 -115 -74 -151q82 -32 82 -154v-397h-125v401q0 51 -20 71.5t-74 20.5h-92v-493h-123
v1058zM678 1225v-340h84q54 0 75 21.5t21 74.5v137q0 107 -96 107h-84z" />
    <glyph glyph-name="macron" unicode="&#xaf;" horiz-adv-x="778" 
d="M57 1595h664v-137h-664v137z" />
    <glyph glyph-name="degree" unicode="&#xb0;" horiz-adv-x="692" 
d="M106 1210v189q0 106 68 169.5t170 63.5q103 0 171.5 -63.5t68.5 -169.5v-189q0 -105 -68.5 -168t-171.5 -63q-102 0 -170 63t-68 168zM236 1399v-187q0 -48 29.5 -77t80.5 -29q49 0 79 29.5t30 76.5v187q0 47 -30 76.5t-79 29.5q-51 0 -80.5 -29t-29.5 -77z" />
    <glyph glyph-name="plusminus" unicode="&#xb1;" horiz-adv-x="1087" 
d="M467 1227h151v-375h375v-150h-375v-374h-151v374h-373v150h373v375zM94 174h899v-149h-899v149z" />
    <glyph glyph-name="twosuperior" unicode="&#xb2;" horiz-adv-x="526" 
d="M74 1415v29q0 82 50 128t142 46q195 0 195 -199q0 -82 -43 -147q-20 -34 -86.5 -119.5t-87.5 -116.5q-28 -40 -35.5 -65t-7.5 -76v-70h260v-104h-381v174q0 96 51 172q19 30 88.5 116.5t91.5 121.5q31 53 31 116q0 52 -16.5 71t-61.5 19q-42 0 -62 -16t-20 -53v-27h-108z
" />
    <glyph glyph-name="threesuperior" unicode="&#xb3;" horiz-adv-x="552" 
d="M80 1415v29q0 81 49.5 127.5t136.5 46.5q95 0 146 -52t51 -139v-122q0 -97 -68 -125q80 -31 80 -138v-163q0 -80 -57 -127t-144 -47q-86 0 -140 47t-54 129v45l108 -27v-18q0 -72 86 -72q84 0 84 72v163q0 46 -18.5 65t-67.5 19h-67v95h61q46 0 63 16.5t17 60.5v130
q0 42 -18.5 61.5t-61.5 19.5q-41 0 -59.5 -17.5t-18.5 -55.5v-23h-108z" />
    <glyph glyph-name="acute" unicode="&#xb4;" horiz-adv-x="555" 
d="M205 1673h198l-219 -323h-159z" />
    <glyph glyph-name="paragraph" unicode="&#xb6;" horiz-adv-x="942" 
d="M369 1604h505l-28 -136h-70v-1714h-133v1714h-223v-1714h-133v1391q-103 6 -165.5 72.5t-62.5 150.5q0 106 77.5 171t232.5 65z" />
    <glyph glyph-name="periodcentered" unicode="&#xb7;" horiz-adv-x="327" 
d="M162 907q53 0 80.5 -31t27.5 -81q0 -49 -27.5 -81t-80.5 -32q-50 0 -77.5 32.5t-27.5 80.5q0 49 27 80.5t78 31.5z" />
    <glyph glyph-name="cedilla" unicode="&#xb8;" horiz-adv-x="391" 
d="M129 -41h180l-90 -389h-143z" />
    <glyph glyph-name="onesuperior" unicode="&#xb9;" horiz-adv-x="399" 
d="M57 1518h41q41 0 57.5 20t16.5 66h121v-883h-121v704h-115v93z" />
    <glyph glyph-name="ordmasculine" unicode="&#xba;" horiz-adv-x="616" 
d="M504 1438v-434q0 -90 -57 -142.5t-144 -52.5t-143 52.5t-56 142.5v434q0 90 56 142t143 52t144 -52t57 -142zM229 1425v-409q0 -39 20 -60.5t54 -21.5q35 0 55.5 21.5t20.5 60.5v409q0 38 -21 59t-55 21t-54 -21t-20 -59z" />
    <glyph glyph-name="guillemotright" unicode="&#xbb;" horiz-adv-x="763" 
d="M350 1251h162l213 -626l-213 -625h-162l215 625zM37 1251h162l213 -626l-213 -625h-162l215 625z" />
    <glyph glyph-name="onequarter" unicode="&#xbc;" horiz-adv-x="1253" 
d="M897 1604h131l-739 -1604h-135zM147 1518h41q41 0 57.5 20t16.5 66h121v-883h-121v704h-115v93zM938 883h111v-504h71v-107h-71v-272h-111v272h-246v99l111 338h102l-104 -330h137v504z" />
    <glyph glyph-name="onehalf" unicode="&#xbd;" horiz-adv-x="1253" 
d="M893 1604h131l-739 -1604h-135zM143 1518h41q41 0 57.5 20t16.5 66h121v-883h-121v704h-115v93zM737 694v29q0 82 50.5 128t142.5 46q194 0 194 -199q0 -82 -43 -147q-20 -34 -86.5 -119.5t-87.5 -116.5q-28 -40 -35.5 -65t-7.5 -76v-70h260v-104h-381v174q0 95 52 172
q19 30 88.5 116.5t91.5 121.5q31 53 31 116q0 52 -17 71.5t-61 19.5q-42 0 -62 -16.5t-20 -53.5v-27h-109z" />
    <glyph glyph-name="threequarters" unicode="&#xbe;" horiz-adv-x="1253" 
d="M934 1604h131l-739 -1604h-136zM975 883h110v-504h72v-107h-72v-272h-110v272h-246v99l111 338h102l-104 -330h137v504zM94 1415v29q0 81 50 127.5t137 46.5q94 0 145 -52t51 -139v-122q0 -97 -67 -125q79 -31 79 -138v-163q0 -80 -56.5 -127t-143.5 -47t-141 47t-54 129
v45l109 -27v-18q0 -72 86 -72q84 0 84 72v163q0 46 -18.5 65t-67.5 19h-68v95h62q46 0 62.5 16.5t16.5 60.5v130q0 42 -18 61.5t-61 19.5q-41 0 -59.5 -17.5t-18.5 -55.5v-23h-109z" />
    <glyph glyph-name="questiondown" unicode="&#xbf;" horiz-adv-x="731" 
d="M352 -291q-136 0 -217.5 81.5t-81.5 238.5q0 90 31.5 172t112.5 219q75 130 105.5 196t44 133.5t15.5 176.5h107q12 -82 12 -146q0 -101 -30.5 -184.5t-110.5 -230.5q-61 -109 -85 -173t-24 -141q0 -85 33.5 -123.5t100.5 -38.5q66 0 106.5 35.5t40.5 98.5v69h166v-80
q0 -138 -92.5 -220.5t-233.5 -82.5zM414 1135q-52 0 -79.5 31t-27.5 81q0 49 27.5 81t79.5 32q51 0 78.5 -32t27.5 -81q0 -50 -27 -81t-79 -31z" />
    <glyph glyph-name="Agrave" unicode="&#xc0;" 
d="M307 1604h187l278 -1604h-182l-37 231h-299l-35 -231h-182zM401 1192l-122 -803h249zM197 2025h198l180 -323h-161z" />
    <glyph glyph-name="Aacute" unicode="&#xc1;" 
d="M307 1604h187l278 -1604h-182l-37 231h-299l-35 -231h-182zM401 1192l-122 -803h249zM412 2025h198l-219 -323h-160z" />
    <glyph glyph-name="Acircumflex" unicode="&#xc2;" 
d="M307 1604h187l278 -1604h-182l-37 231h-299l-35 -231h-182zM401 1192l-122 -803h249zM305 2025h197l203 -323h-154l-148 235l-147 -235h-152z" />
    <glyph glyph-name="Atilde" unicode="&#xc3;" 
d="M307 1604h187l278 -1604h-182l-37 231h-299l-35 -231h-182zM401 1192l-122 -803h249zM127 1776l-74 65q76 156 213 156q44 0 84 -15.5t65.5 -34t60.5 -34t69 -15.5q87 0 135 101l74 -66q-77 -157 -207 -157q-41 0 -80.5 15.5t-66.5 33.5t-64 33.5t-74 15.5
q-90 0 -135 -98z" />
    <glyph glyph-name="Adieresis" unicode="&#xc4;" 
d="M307 1604h187l278 -1604h-182l-37 231h-299l-35 -231h-182zM401 1192l-122 -803h249zM571 2003q53 0 81 -31.5t28 -79.5q0 -50 -28 -82t-81 -32q-50 0 -77 32t-27 82q0 48 27 79.5t77 31.5zM229 2003q53 0 81 -31.5t28 -79.5q0 -50 -28 -82t-81 -32q-50 0 -77 32t-27 82
q0 48 27 79.5t77 31.5z" />
    <glyph glyph-name="Aring" unicode="&#xc5;" 
d="M307 1604h187l278 -1604h-182l-37 231h-299l-35 -231h-182zM401 1192l-122 -803h249zM373 2025h57q83 0 131.5 -51.5t48.5 -130.5t-49 -131.5t-131 -52.5h-57q-81 0 -129.5 52.5t-48.5 131.5t48.5 130.5t129.5 51.5zM430 1925h-57q-34 0 -56 -23t-22 -61q0 -36 22 -59
t56 -23h57q35 0 57.5 22.5t22.5 59.5q0 38 -22 61t-58 23z" />
    <glyph glyph-name="AE" unicode="&#xc6;" horiz-adv-x="1099" 
d="M276 1604h764v-183h-342v-503h242v-183h-242v-553h342v-182h-530v231h-260l-31 -231h-182zM510 1421h-100l-140 -1032h240v1032z" />
    <glyph glyph-name="Ccedilla" unicode="&#xc7;" horiz-adv-x="776" 
d="M270 1311v-1018q0 -67 37.5 -103t100.5 -36t101 36t38 103v33l174 45v-82q0 -144 -92.5 -231t-229.5 -87q-135 0 -225 87t-90 231v1026q0 146 90.5 231.5t235.5 85.5q143 0 227 -85t84 -232v-53h-174v49q0 68 -35.5 103.5t-99.5 35.5q-66 0 -104 -35.5t-38 -103.5z
M301 -41h180l-90 -389h-143z" />
    <glyph glyph-name="Egrave" unicode="&#xc8;" horiz-adv-x="684" 
d="M94 1604h531v-183h-342v-503h241v-183h-241v-553h342v-182h-531v1604zM156 2025h198l181 -323h-162z" />
    <glyph glyph-name="Eacute" unicode="&#xc9;" horiz-adv-x="684" 
d="M94 1604h531v-183h-342v-503h241v-183h-241v-553h342v-182h-531v1604zM375 2025h198l-219 -323h-159z" />
    <glyph glyph-name="Ecircumflex" unicode="&#xca;" horiz-adv-x="684" 
d="M94 1604h531v-183h-342v-503h241v-183h-241v-553h342v-182h-531v1604zM264 2025h197l203 -323h-154l-148 235l-147 -235h-152z" />
    <glyph glyph-name="Edieresis" unicode="&#xcb;" horiz-adv-x="684" 
d="M94 1604h531v-183h-342v-503h241v-183h-241v-553h342v-182h-531v1604zM528 2003q53 0 81 -31.5t28 -79.5q0 -50 -28 -82t-81 -32q-50 0 -77 32t-27 82q0 48 27 79.5t77 31.5zM186 2003q53 0 81 -31.5t28 -79.5q0 -50 -28 -82t-81 -32q-50 0 -77 32t-27 82q0 48 27 79.5
t77 31.5z" />
    <glyph glyph-name="Igrave" unicode="&#xcc;" horiz-adv-x="419" 
d="M137 1604h189v-1604h-189v1604zM25 2025h198l180 -323h-161z" />
    <glyph glyph-name="Iacute" unicode="&#xcd;" horiz-adv-x="428" 
d="M94 1604h189v-1604h-189v1604zM209 2025h199l-220 -323h-159z" />
    <glyph glyph-name="Icircumflex" unicode="&#xce;" horiz-adv-x="528" 
d="M170 1604h188v-1604h-188v1604zM166 2025h196l203 -323h-153l-148 235l-147 -235h-152z" />
    <glyph glyph-name="Idieresis" unicode="&#xcf;" horiz-adv-x="479" 
d="M145 1604h189v-1604h-189v1604zM410 2003q53 0 80.5 -31t27.5 -80q0 -50 -27.5 -82t-80.5 -32q-50 0 -77.5 32t-27.5 82q0 48 27.5 79.5t77.5 31.5zM68 2003q53 0 80.5 -31t27.5 -80q0 -50 -27.5 -82t-80.5 -32q-50 0 -77.5 32t-27.5 82q0 48 27.5 79.5t77.5 31.5z" />
    <glyph glyph-name="Eth" unicode="&#xd0;" horiz-adv-x="854" 
d="M119 1604h332q151 0 235 -93t84 -276v-866q0 -183 -84 -276t-235 -93h-332v735h-101v183h101v686zM307 1421v-503h168v-183h-168v-553h129q148 0 148 174v891q0 174 -148 174h-129z" />
    <glyph glyph-name="Ntilde" unicode="&#xd1;" horiz-adv-x="829" 
d="M94 1604h205l272 -1106v1106h164v-1604h-168l-309 1180v-1180h-164v1604zM137 1776l-74 65q76 156 213 156q44 0 84 -15.5t65.5 -34t60.5 -34t69 -15.5q87 0 135 101l74 -66q-77 -157 -207 -157q-41 0 -80.5 15.5t-66.5 33.5t-64 33.5t-74 15.5q-90 0 -135 -98z" />
    <glyph glyph-name="Ograve" unicode="&#xd2;" horiz-adv-x="827" 
d="M743 1311v-1018q0 -147 -94 -234.5t-235 -87.5q-142 0 -236 87.5t-94 234.5v1018q0 147 94 234t236 87q141 0 235 -87t94 -234zM270 1309v-1014q0 -67 39.5 -104t104.5 -37t104 37t39 104v1014q0 67 -39 104t-104 37t-104.5 -37t-39.5 -104zM209 2025h199l180 -323h-162z
" />
    <glyph glyph-name="Oacute" unicode="&#xd3;" horiz-adv-x="827" 
d="M743 1311v-1018q0 -147 -94 -234.5t-235 -87.5q-142 0 -236 87.5t-94 234.5v1018q0 147 94 234t236 87q141 0 235 -87t94 -234zM270 1309v-1014q0 -67 39.5 -104t104.5 -37t104 37t39 104v1014q0 67 -39 104t-104 37t-104.5 -37t-39.5 -104zM422 2025h199l-220 -323h-159
z" />
    <glyph glyph-name="Ocircumflex" unicode="&#xd4;" horiz-adv-x="827" 
d="M743 1311v-1018q0 -147 -94 -234.5t-235 -87.5q-142 0 -236 87.5t-94 234.5v1018q0 147 94 234t236 87q141 0 235 -87t94 -234zM270 1309v-1014q0 -67 39.5 -104t104.5 -37t104 37t39 104v1014q0 67 -39 104t-104 37t-104.5 -37t-39.5 -104zM313 2025h197l203 -323h-154
l-147 235l-148 -235h-151z" />
    <glyph glyph-name="Otilde" unicode="&#xd5;" horiz-adv-x="827" 
d="M743 1311v-1018q0 -147 -94 -234.5t-235 -87.5q-142 0 -236 87.5t-94 234.5v1018q0 147 94 234t236 87q141 0 235 -87t94 -234zM270 1309v-1014q0 -67 39.5 -104t104.5 -37t104 37t39 104v1014q0 67 -39 104t-104 37t-104.5 -37t-39.5 -104zM137 1776l-74 65
q76 156 213 156q44 0 84 -15.5t65.5 -34t60.5 -34t69 -15.5q87 0 135 101l74 -66q-77 -157 -207 -157q-41 0 -80.5 15.5t-66.5 33.5t-64 33.5t-74 15.5q-90 0 -135 -98z" />
    <glyph glyph-name="Odieresis" unicode="&#xd6;" horiz-adv-x="827" 
d="M743 1311v-1018q0 -147 -94 -234.5t-235 -87.5q-142 0 -236 87.5t-94 234.5v1018q0 147 94 234t236 87q141 0 235 -87t94 -234zM270 1309v-1014q0 -67 39.5 -104t104.5 -37t104 37t39 104v1014q0 67 -39 104t-104 37t-104.5 -37t-39.5 -104zM584 2003q53 0 80.5 -31
t27.5 -80q0 -50 -27.5 -82t-80.5 -32q-50 0 -77.5 32t-27.5 82q0 48 27.5 79.5t77.5 31.5zM242 2003q53 0 80.5 -31t27.5 -80q0 -50 -27.5 -82t-80.5 -32q-50 0 -77.5 32t-27.5 82q0 48 27.5 79.5t77.5 31.5z" />
    <glyph glyph-name="multiply" unicode="&#xd7;" horiz-adv-x="1087" 
d="M246 1182l297 -299l299 299l106 -107l-299 -297l299 -301l-106 -104l-299 299l-297 -299l-107 106l297 299l-297 297z" />
    <glyph glyph-name="Oslash" unicode="&#xd8;" horiz-adv-x="827" 
d="M664 1726h108l-78 -237q49 -77 49 -178v-1018q0 -147 -94 -234.5t-235 -87.5q-118 0 -203 60l-49 -154h-109l78 238q-47 74 -47 178v1018q0 147 94 234t236 87q115 0 198 -59zM414 154q65 0 104 37t39 104v780l-278 -839q30 -82 135 -82zM270 1309v-777l277 838
q-15 38 -51 59t-82 21q-65 0 -104.5 -37t-39.5 -104z" />
    <glyph glyph-name="Ugrave" unicode="&#xd9;" horiz-adv-x="839" 
d="M90 1604h189v-1309q0 -67 39 -104t102 -37q66 0 105.5 36.5t39.5 104.5v1309h185v-1311q0 -147 -94.5 -234.5t-237.5 -87.5q-142 0 -235 87.5t-93 234.5v1311zM215 2025h199l180 -323h-162z" />
    <glyph glyph-name="Uacute" unicode="&#xda;" horiz-adv-x="839" 
d="M90 1604h189v-1309q0 -67 39 -104t102 -37q66 0 105.5 36.5t39.5 104.5v1309h185v-1311q0 -147 -94.5 -234.5t-237.5 -87.5q-142 0 -235 87.5t-93 234.5v1311zM426 2025h199l-219 -323h-160z" />
    <glyph glyph-name="Ucircumflex" unicode="&#xdb;" horiz-adv-x="839" 
d="M90 1604h189v-1309q0 -67 39 -104t102 -37q66 0 105.5 36.5t39.5 104.5v1309h185v-1311q0 -147 -94.5 -234.5t-237.5 -87.5q-142 0 -235 87.5t-93 234.5v1311zM319 2025h197l203 -323h-154l-147 235l-148 -235h-151z" />
    <glyph glyph-name="Udieresis" unicode="&#xdc;" horiz-adv-x="839" 
d="M90 1604h189v-1309q0 -67 39 -104t102 -37q66 0 105.5 36.5t39.5 104.5v1309h185v-1311q0 -147 -94.5 -234.5t-237.5 -87.5q-142 0 -235 87.5t-93 234.5v1311zM588 2003q53 0 80.5 -31t27.5 -80q0 -50 -27.5 -82t-80.5 -32q-50 0 -77.5 32t-27.5 82q0 48 27.5 79.5
t77.5 31.5zM246 2003q53 0 80.5 -31t27.5 -80q0 -50 -27.5 -82t-80.5 -32q-50 0 -77.5 32t-27.5 82q0 48 27.5 79.5t77.5 31.5z" />
    <glyph glyph-name="Yacute" unicode="&#xdd;" horiz-adv-x="843" 
d="M27 1604h190l207 -623l211 623h182l-301 -854v-750h-188v750zM430 2025h199l-219 -323h-160z" />
    <glyph glyph-name="Thorn" unicode="&#xde;" horiz-adv-x="825" 
d="M94 1604h189v-273h143q151 0 235 -92.5t84 -275.5v-304q0 -183 -84 -275.5t-235 -92.5h-143v-291h-189v1604zM283 1149v-676h129q147 0 147 174v328q0 174 -147 174h-129z" />
    <glyph glyph-name="germandbls" unicode="&#xdf;" horiz-adv-x="913" 
d="M266 1358v-1358h-172v1346q0 158 77 249t239 91q66 0 117 -16.5t83.5 -44t53.5 -67.5t29.5 -84t8.5 -96v-288q0 -142 -43 -203q88 -24 131.5 -87t43.5 -182v-299q0 -70 -17.5 -129.5t-53 -106t-95 -73t-138.5 -26.5q-137 0 -223 94l55 151q50 -73 140 -73q72 0 112.5 44
t40.5 119v291q0 102 -43.5 138t-158.5 36h-60v146h19q75 0 99 31.5t24 113.5v291q0 64 -33 101.5t-99 37.5q-68 0 -102.5 -38.5t-34.5 -108.5z" />
    <glyph glyph-name="agrave" unicode="&#xe0;" horiz-adv-x="786" 
d="M209 1004l-100 124q44 65 122 102.5t168 37.5q145 0 221 -92.5t76 -247.5v-928h-114l-33 70q-103 -86 -230 -86q-54 0 -99.5 17.5t-83.5 54t-59.5 101t-21.5 150.5q0 135 59.5 233t198.5 203q94 68 211 142v39q0 81 -38 128.5t-111 47.5q-52 0 -95.5 -25.5t-70.5 -70.5z
M373 156q80 0 151 71v482q-82 -52 -121 -82q-92 -71 -128.5 -140.5t-36.5 -152.5q0 -178 135 -178zM186 1673h199l180 -323h-162z" />
    <glyph glyph-name="aacute" unicode="&#xe1;" horiz-adv-x="786" 
d="M209 1004l-100 124q44 65 122 102.5t168 37.5q145 0 221 -92.5t76 -247.5v-928h-114l-33 70q-103 -86 -230 -86q-54 0 -99.5 17.5t-83.5 54t-59.5 101t-21.5 150.5q0 135 59.5 233t198.5 203q94 68 211 142v39q0 81 -38 128.5t-111 47.5q-52 0 -95.5 -25.5t-70.5 -70.5z
M373 156q80 0 151 71v482q-82 -52 -121 -82q-92 -71 -128.5 -140.5t-36.5 -152.5q0 -178 135 -178zM403 1673h199l-219 -323h-160z" />
    <glyph glyph-name="acircumflex" unicode="&#xe2;" horiz-adv-x="786" 
d="M209 1004l-100 124q44 65 122 102.5t168 37.5q145 0 221 -92.5t76 -247.5v-928h-114l-33 70q-103 -86 -230 -86q-54 0 -99.5 17.5t-83.5 54t-59.5 101t-21.5 150.5q0 135 59.5 233t198.5 203q94 68 211 142v39q0 81 -38 128.5t-111 47.5q-52 0 -95.5 -25.5t-70.5 -70.5z
M373 156q80 0 151 71v482q-82 -52 -121 -82q-92 -71 -128.5 -140.5t-36.5 -152.5q0 -178 135 -178zM293 1673h196l203 -323h-153l-148 235l-147 -235h-152z" />
    <glyph glyph-name="atilde" unicode="&#xe3;" horiz-adv-x="786" 
d="M209 1004l-100 124q44 65 122 102.5t168 37.5q145 0 221 -92.5t76 -247.5v-928h-114l-33 70q-103 -86 -230 -86q-54 0 -99.5 17.5t-83.5 54t-59.5 101t-21.5 150.5q0 135 59.5 233t198.5 203q94 68 211 142v39q0 81 -38 128.5t-111 47.5q-52 0 -95.5 -25.5t-70.5 -70.5z
M373 156q80 0 151 71v482q-82 -52 -121 -82q-92 -71 -128.5 -140.5t-36.5 -152.5q0 -178 135 -178zM117 1423l-74 66q76 156 213 156q44 0 84 -15.5t65.5 -34t60.5 -34t69 -15.5q87 0 135 101l73 -66q-77 -158 -206 -158q-41 0 -80.5 15.5t-66.5 34t-64 34t-74 15.5
q-89 0 -135 -99z" />
    <glyph glyph-name="adieresis" unicode="&#xe4;" horiz-adv-x="786" 
d="M209 1004l-100 124q44 65 122 102.5t168 37.5q145 0 221 -92.5t76 -247.5v-928h-114l-33 70q-103 -86 -230 -86q-54 0 -99.5 17.5t-83.5 54t-59.5 101t-21.5 150.5q0 135 59.5 233t198.5 203q94 68 211 142v39q0 81 -38 128.5t-111 47.5q-52 0 -95.5 -25.5t-70.5 -70.5z
M373 156q80 0 151 71v482q-82 -52 -121 -82q-92 -71 -128.5 -140.5t-36.5 -152.5q0 -178 135 -178zM563 1651q53 0 81 -31.5t28 -79.5q0 -50 -28 -82.5t-81 -32.5q-50 0 -77 32.5t-27 82.5q0 48 27 79.5t77 31.5zM221 1651q53 0 81 -31.5t28 -79.5q0 -50 -28 -82.5
t-81 -32.5q-50 0 -77 32.5t-27 82.5q0 48 27 79.5t77 31.5z" />
    <glyph glyph-name="aring" unicode="&#xe5;" horiz-adv-x="786" 
d="M209 1004l-100 124q44 65 122 102.5t168 37.5q145 0 221 -92.5t76 -247.5v-928h-114l-33 70q-103 -86 -230 -86q-54 0 -99.5 17.5t-83.5 54t-59.5 101t-21.5 150.5q0 135 59.5 233t198.5 203q94 68 211 142v39q0 81 -38 128.5t-111 47.5q-52 0 -95.5 -25.5t-70.5 -70.5z
M373 156q80 0 151 71v482q-82 -52 -121 -82q-92 -71 -128.5 -140.5t-36.5 -152.5q0 -178 135 -178zM362 1673h58q83 0 131.5 -51.5t48.5 -130.5t-49 -131.5t-131 -52.5h-58q-81 0 -129.5 52.5t-48.5 131.5t48.5 130.5t129.5 51.5zM420 1573h-58q-34 0 -55.5 -23t-21.5 -61
q0 -37 21.5 -59.5t55.5 -22.5h58q35 0 57.5 22.5t22.5 59.5q0 38 -22 61t-58 23z" />
    <glyph glyph-name="ae" unicode="&#xe6;" horiz-adv-x="1204" 
d="M209 1004l-100 124q44 65 122 102.5t168 37.5q132 0 209 -80q86 80 217 80q57 0 108.5 -17t97 -53.5t72.5 -103t27 -156.5q0 -159 -97.5 -277t-336.5 -268v-100q0 -63 36 -98t95 -35q60 0 97 35t37 98v80l165 43v-129q0 -138 -87 -220.5t-218 -82.5q-76 0 -140 29.5
t-103 84.5q-48 -52 -117 -83t-142 -31q-114 0 -189 78.5t-75 246.5q0 72 17 131.5t48 110.5t90.5 105t129.5 104.5t180 120.5v84q0 64 -40.5 99.5t-104.5 35.5q-52 0 -95.5 -25.5t-70.5 -70.5zM371 156q80 0 153 73q-4 18 -4 58v420q-165 -108 -223.5 -187.5t-58.5 -183.5
q0 -180 133 -180zM696 956v-387q145 95 201.5 172.5t56.5 180.5q0 95 -36.5 136.5t-96.5 41.5q-59 0 -92 -38.5t-33 -105.5z" />
    <glyph glyph-name="ccedilla" unicode="&#xe7;" horiz-adv-x="757" 
d="M260 954v-657q0 -63 36 -98t95 -35q60 0 96.5 35t36.5 98v76l166 43v-129q0 -138 -87 -220.5t-218 -82.5q-129 0 -215 82.5t-86 220.5v678q0 138 86 220.5t215 82.5q131 0 218 -82.5t87 -220.5v-54h-166v43q0 63 -36.5 98t-96.5 35q-59 0 -95 -35t-36 -98zM291 -41h180
l-90 -389h-143z" />
    <glyph glyph-name="egrave" unicode="&#xe8;" horiz-adv-x="768" 
d="M494 561q-94 -81 -234 -168v-100q0 -63 36 -98t95 -35q60 0 96.5 35t36.5 98v80l166 43v-129q0 -138 -87 -220.5t-218 -82.5q-129 0 -215 82.5t-86 220.5v678q0 138 86 220.5t217 82.5q59 0 110.5 -17t97.5 -53.5t72.5 -103t26.5 -156.5q0 -114 -47 -202t-153 -175z
M260 956v-387q91 60 141 107q63 58 90 116.5t27 133.5q0 91 -37 132.5t-96 41.5t-92 -38.5t-33 -105.5zM178 1673h199l180 -323h-162z" />
    <glyph glyph-name="eacute" unicode="&#xe9;" horiz-adv-x="768" 
d="M494 561q-94 -81 -234 -168v-100q0 -63 36 -98t95 -35q60 0 96.5 35t36.5 98v80l166 43v-129q0 -138 -87 -220.5t-218 -82.5q-129 0 -215 82.5t-86 220.5v678q0 138 86 220.5t217 82.5q59 0 110.5 -17t97.5 -53.5t72.5 -103t26.5 -156.5q0 -114 -47 -202t-153 -175z
M260 956v-387q91 60 141 107q63 58 90 116.5t27 133.5q0 91 -37 132.5t-96 41.5t-92 -38.5t-33 -105.5zM395 1673h199l-219 -323h-160z" />
    <glyph glyph-name="ecircumflex" unicode="&#xea;" horiz-adv-x="768" 
d="M494 561q-94 -81 -234 -168v-100q0 -63 36 -98t95 -35q60 0 96.5 35t36.5 98v80l166 43v-129q0 -138 -87 -220.5t-218 -82.5q-129 0 -215 82.5t-86 220.5v678q0 138 86 220.5t217 82.5q59 0 110.5 -17t97.5 -53.5t72.5 -103t26.5 -156.5q0 -114 -47 -202t-153 -175z
M260 956v-387q91 60 141 107q63 58 90 116.5t27 133.5q0 91 -37 132.5t-96 41.5t-92 -38.5t-33 -105.5zM285 1673h196l203 -323h-154l-147 235l-147 -235h-152z" />
    <glyph glyph-name="edieresis" unicode="&#xeb;" horiz-adv-x="768" 
d="M494 561q-94 -81 -234 -168v-100q0 -63 36 -98t95 -35q60 0 96.5 35t36.5 98v80l166 43v-129q0 -138 -87 -220.5t-218 -82.5q-129 0 -215 82.5t-86 220.5v678q0 138 86 220.5t217 82.5q59 0 110.5 -17t97.5 -53.5t72.5 -103t26.5 -156.5q0 -114 -47 -202t-153 -175z
M260 956v-387q91 60 141 107q63 58 90 116.5t27 133.5q0 91 -37 132.5t-96 41.5t-92 -38.5t-33 -105.5zM553 1651q53 0 81 -31.5t28 -79.5q0 -50 -28 -82.5t-81 -32.5q-50 0 -77 32.5t-27 82.5q0 48 27 79.5t77 31.5zM211 1651q53 0 80.5 -31t27.5 -80q0 -50 -27.5 -82.5
t-80.5 -32.5q-50 0 -77.5 32.5t-27.5 82.5q0 48 27.5 79.5t77.5 31.5z" />
    <glyph glyph-name="igrave" unicode="&#xec;" horiz-adv-x="409" 
d="M18 1673h199l180 -323h-161zM133 1251h182v-1251h-182v1251z" />
    <glyph glyph-name="iacute" unicode="&#xed;" horiz-adv-x="419" 
d="M205 1673h198l-219 -323h-159zM94 1251h182v-1251h-182v1251z" />
    <glyph glyph-name="icircumflex" unicode="&#xee;" horiz-adv-x="552" 
d="M184 1251h183v-1251h-183v1251zM176 1673h197l202 -323h-153l-148 235l-147 -235h-152z" />
    <glyph glyph-name="idieresis" unicode="&#xef;" horiz-adv-x="538" 
d="M438 1651q53 0 81 -31.5t28 -79.5q0 -50 -28 -82.5t-81 -32.5q-50 0 -77 32.5t-27 82.5q0 48 27 79.5t77 31.5zM96 1651q53 0 81 -31.5t28 -79.5q0 -50 -28 -82.5t-81 -32.5q-50 0 -77 32.5t-27 82.5q0 48 27 79.5t77 31.5zM180 1251h182v-1251h-182v1251z" />
    <glyph glyph-name="eth" unicode="&#xf0;" horiz-adv-x="772" 
d="M219 1423l-100 123q44 65 122.5 102.5t168.5 37.5q104 0 178 -54l92 109l61 -55l-96 -113q62 -89 62 -227v-1051q0 -141 -88 -226t-220 -85q-134 0 -223.5 85t-89.5 226v450q0 138 70.5 211.5t175.5 73.5q116 0 207 -94v407q0 40 -15 87l-241 -285l-60 55l252 299
q-36 25 -84 25q-105 0 -172 -101zM397 164q61 0 101.5 36t40.5 101v463q-71 96 -160 96q-123 0 -123 -151v-408q0 -65 39.5 -101t101.5 -36z" />
    <glyph glyph-name="ntilde" unicode="&#xf1;" horiz-adv-x="825" 
d="M94 1251h125l29 -71q97 88 225 88q114 0 188 -78t74 -225v-965h-182v926q0 161 -131 161q-78 0 -146 -65v-1022h-182v1251zM135 1423l-74 66q76 156 213 156q44 0 84 -15.5t65.5 -34t60.5 -34t69 -15.5q87 0 135 101l74 -66q-77 -158 -207 -158q-41 0 -80.5 15.5
t-66.5 34t-64 34t-74 15.5q-89 0 -135 -99z" />
    <glyph glyph-name="ograve" unicode="&#xf2;" horiz-adv-x="790" 
d="M707 965v-678q0 -137 -89.5 -220t-222.5 -83q-134 0 -222.5 82.5t-88.5 220.5v678q0 138 88.5 220.5t222.5 82.5q133 0 222.5 -83t89.5 -220zM260 954v-657q0 -63 37.5 -98t97.5 -35t96.5 35t36.5 98v657q0 63 -36.5 98t-96.5 35t-97.5 -35t-37.5 -98zM188 1673h199
l180 -323h-161z" />
    <glyph glyph-name="oacute" unicode="&#xf3;" horiz-adv-x="790" 
d="M707 965v-678q0 -137 -89.5 -220t-222.5 -83q-134 0 -222.5 82.5t-88.5 220.5v678q0 138 88.5 220.5t222.5 82.5q133 0 222.5 -83t89.5 -220zM260 954v-657q0 -63 37.5 -98t97.5 -35t96.5 35t36.5 98v657q0 63 -36.5 98t-96.5 35t-97.5 -35t-37.5 -98zM401 1673h199
l-219 -323h-160z" />
    <glyph glyph-name="ocircumflex" unicode="&#xf4;" horiz-adv-x="790" 
d="M707 965v-678q0 -137 -89.5 -220t-222.5 -83q-134 0 -222.5 82.5t-88.5 220.5v678q0 138 88.5 220.5t222.5 82.5q133 0 222.5 -83t89.5 -220zM260 954v-657q0 -63 37.5 -98t97.5 -35t96.5 35t36.5 98v657q0 63 -36.5 98t-96.5 35t-97.5 -35t-37.5 -98zM295 1673h197
l202 -323h-153l-148 235l-147 -235h-152z" />
    <glyph glyph-name="otilde" unicode="&#xf5;" horiz-adv-x="790" 
d="M707 965v-678q0 -137 -89.5 -220t-222.5 -83q-134 0 -222.5 82.5t-88.5 220.5v678q0 138 88.5 220.5t222.5 82.5q133 0 222.5 -83t89.5 -220zM260 954v-657q0 -63 37.5 -98t97.5 -35t96.5 35t36.5 98v657q0 63 -36.5 98t-96.5 35t-97.5 -35t-37.5 -98zM119 1423l-74 66
q76 156 213 156q44 0 84 -15.5t65.5 -34t60.5 -34t69 -15.5q87 0 135 101l73 -66q-77 -158 -206 -158q-41 0 -80.5 15.5t-66.5 34t-64 34t-74 15.5q-89 0 -135 -99z" />
    <glyph glyph-name="odieresis" unicode="&#xf6;" horiz-adv-x="790" 
d="M707 965v-678q0 -137 -89.5 -220t-222.5 -83q-134 0 -222.5 82.5t-88.5 220.5v678q0 138 88.5 220.5t222.5 82.5q133 0 222.5 -83t89.5 -220zM260 954v-657q0 -63 37.5 -98t97.5 -35t96.5 35t36.5 98v657q0 63 -36.5 98t-96.5 35t-97.5 -35t-37.5 -98zM563 1651
q53 0 81 -31.5t28 -79.5q0 -50 -28 -82.5t-81 -32.5q-50 0 -77 32.5t-27 82.5q0 48 27 79.5t77 31.5zM221 1651q53 0 81 -31.5t28 -79.5q0 -50 -28 -82.5t-81 -32.5q-50 0 -77 32.5t-27 82.5q0 48 27 79.5t77 31.5z" />
    <glyph glyph-name="divide" unicode="&#xf7;" horiz-adv-x="1087" 
d="M94 852h899v-150h-899v150zM541 473q53 0 80.5 -31.5t27.5 -81.5q0 -49 -27.5 -80.5t-80.5 -31.5q-50 0 -77.5 32t-27.5 80q0 50 27 81.5t78 31.5zM541 1309q53 0 80.5 -31.5t27.5 -81.5q0 -49 -27.5 -81t-80.5 -32q-50 0 -77.5 32.5t-27.5 80.5q0 50 27 81.5t78 31.5z
" />
    <glyph glyph-name="oslash" unicode="&#xf8;" horiz-adv-x="790" 
d="M580 1374h100l-62 -192q89 -83 89 -217v-678q0 -137 -89.5 -220t-222.5 -83q-76 0 -143 28l-43 -135h-100l59 193q-84 81 -84 217v678q0 138 88.5 220.5t222.5 82.5q73 0 142 -29zM395 164q60 0 96.5 35t36.5 98v596l-221 -703q33 -26 88 -26zM260 954v-596l221 703
q-33 26 -86 26q-60 0 -97.5 -35t-37.5 -98z" />
    <glyph glyph-name="ugrave" unicode="&#xf9;" horiz-adv-x="817" 
d="M541 1251h182v-1251h-125l-31 70q-92 -86 -217 -86q-112 0 -186 78t-74 225v964h182v-925q0 -162 129 -162q74 0 140 63v1024zM203 1673h198l181 -323h-162z" />
    <glyph glyph-name="uacute" unicode="&#xfa;" horiz-adv-x="817" 
d="M541 1251h182v-1251h-125l-31 70q-92 -86 -217 -86q-112 0 -186 78t-74 225v964h182v-925q0 -162 129 -162q74 0 140 63v1024zM418 1673h198l-219 -323h-159z" />
    <glyph glyph-name="ucircumflex" unicode="&#xfb;" horiz-adv-x="817" 
d="M541 1251h182v-1251h-125l-31 70q-92 -86 -217 -86q-112 0 -186 78t-74 225v964h182v-925q0 -162 129 -162q74 0 140 63v1024zM309 1673h197l203 -323h-154l-147 235l-148 -235h-151z" />
    <glyph glyph-name="udieresis" unicode="&#xfc;" horiz-adv-x="817" 
d="M541 1251h182v-1251h-125l-31 70q-92 -86 -217 -86q-112 0 -186 78t-74 225v964h182v-925q0 -162 129 -162q74 0 140 63v1024zM575 1651q53 0 81 -31.5t28 -79.5q0 -50 -28 -82.5t-81 -32.5q-50 0 -77 32.5t-27 82.5q0 48 27 79.5t77 31.5zM233 1651q53 0 81 -31.5
t28 -79.5q0 -50 -28 -82.5t-81 -32.5q-50 0 -77 32.5t-27 82.5q0 48 27 79.5t77 31.5z" />
    <glyph glyph-name="yacute" unicode="&#xfd;" horiz-adv-x="817" 
d="M541 1251h182v-1601h-182v418q-85 -64 -191 -64q-112 0 -186 78t-74 225v944h182v-905q0 -162 129 -162q73 0 140 64v1003zM418 1673h198l-219 -323h-159z" />
    <glyph glyph-name="thorn" unicode="&#xfe;" 
d="M94 1624l182 45v-473q91 72 201 72t184 -78.5t74 -224.5v-678q0 -146 -74 -224.5t-184 -78.5q-115 0 -201 71v-405h-182v1974zM426 1087q-82 0 -150 -71v-780q69 -72 150 -72q127 0 127 162v600q0 161 -127 161z" />
    <glyph glyph-name="ydieresis" unicode="&#xff;" horiz-adv-x="817" 
d="M541 1251h182v-1601h-182v418q-85 -64 -191 -64q-112 0 -186 78t-74 225v944h182v-905q0 -162 129 -162q73 0 140 64v1003zM578 1651q53 0 80.5 -31t27.5 -80q0 -50 -27.5 -82.5t-80.5 -32.5q-50 0 -77.5 32.5t-27.5 82.5q0 48 27.5 79.5t77.5 31.5zM236 1651
q53 0 80.5 -31t27.5 -80q0 -50 -27.5 -82.5t-80.5 -32.5q-50 0 -77.5 32.5t-27.5 82.5q0 48 27.5 79.5t77.5 31.5z" />
    <glyph glyph-name="Amacron" unicode="&#x100;" 
d="M307 1604h187l278 -1604h-182l-37 231h-299l-35 -231h-182zM401 1192l-122 -803h249zM72 1948h663v-138h-663v138z" />
    <glyph glyph-name="amacron" unicode="&#x101;" horiz-adv-x="786" 
d="M209 1004l-100 124q44 65 122 102.5t168 37.5q145 0 221 -92.5t76 -247.5v-928h-114l-33 70q-103 -86 -230 -86q-54 0 -99.5 17.5t-83.5 54t-59.5 101t-21.5 150.5q0 135 59.5 233t198.5 203q94 68 211 142v39q0 81 -38 128.5t-111 47.5q-52 0 -95.5 -25.5t-70.5 -70.5z
M373 156q80 0 151 71v482q-82 -52 -121 -82q-92 -71 -128.5 -140.5t-36.5 -152.5q0 -178 135 -178zM61 1595h664v-137h-664v137z" />
    <glyph glyph-name="Abreve" unicode="&#x102;" 
d="M307 1604h187l278 -1604h-182l-37 231h-299l-35 -231h-182zM401 1192l-122 -803h249zM143 2025h136q6 -112 37.5 -161t86.5 -49q114 0 125 210h134q-3 -64 -19.5 -119t-46.5 -100.5t-79.5 -71.5t-113.5 -26t-114 26.5t-80 72t-46.5 100.5t-19.5 118z" />
    <glyph glyph-name="abreve" unicode="&#x103;" horiz-adv-x="786" 
d="M209 1004l-100 124q44 65 122 102.5t168 37.5q145 0 221 -92.5t76 -247.5v-928h-114l-33 70q-103 -86 -230 -86q-54 0 -99.5 17.5t-83.5 54t-59.5 101t-21.5 150.5q0 135 59.5 233t198.5 203q94 68 211 142v39q0 81 -38 128.5t-111 47.5q-52 0 -95.5 -25.5t-70.5 -70.5z
M373 156q80 0 151 71v482q-82 -52 -121 -82q-92 -71 -128.5 -140.5t-36.5 -152.5q0 -178 135 -178zM133 1673h135q11 -211 125 -211t125 211h133q-7 -136 -71 -226.5t-187 -90.5q-64 0 -114 26.5t-80 72t-46.5 100.5t-19.5 118z" />
    <glyph glyph-name="Aogonek" unicode="&#x104;" 
d="M526 -43l68 23l-41 251h-299l-35 -231h-182l270 1604h187l278 -1604l-174 -76q-67 -30 -92 -54.5t-25 -57.5q0 -41 30 -62.5t101 -21.5q104 0 154 36l59 -124q-28 -30 -91 -50t-150 -20q-75 0 -129.5 16t-82.5 44t-40.5 58.5t-12.5 65.5q0 72 51 121t156 82zM401 1194
l-122 -805h249z" />
    <glyph glyph-name="aogonek" unicode="&#x105;" horiz-adv-x="786" 
d="M451 -43l131 41l-33 72q-103 -86 -230 -86q-114 0 -189 79t-75 248q0 72 17 131.5t48.5 110t92 105t130 105t181.5 122.5v39q0 81 -38 128.5t-111 47.5q-52 0 -95.5 -25.5t-70.5 -70.5l-100 124q44 65 122 102.5t168 37.5q145 0 221 -92.5t76 -247.5v-928l-174 -76
q-67 -30 -91.5 -54.5t-24.5 -57.5q0 -41 30 -62.5t101 -21.5q103 0 153 36l60 -124q-28 -30 -91.5 -50t-150.5 -20q-75 0 -129.5 16t-82.5 44t-40 58.5t-12 65.5q0 72 51 121t156 82zM373 156q80 0 151 71v482q-165 -103 -225.5 -186t-60.5 -187q0 -180 135 -180z" />
    <glyph glyph-name="Cacute" unicode="&#x106;" horiz-adv-x="776" 
d="M270 1311v-1018q0 -67 37.5 -103t100.5 -36t101 36t38 103v33l174 45v-82q0 -144 -92.5 -231t-229.5 -87q-135 0 -225 87t-90 231v1026q0 146 90.5 231.5t235.5 85.5q143 0 227 -85t84 -232v-53h-174v49q0 68 -35.5 103.5t-99.5 35.5q-66 0 -104 -35.5t-38 -103.5z
M422 2025h199l-220 -323h-159z" />
    <glyph glyph-name="cacute" unicode="&#x107;" horiz-adv-x="757" 
d="M260 954v-657q0 -63 36 -98t95 -35q60 0 96.5 35t36.5 98v76l166 43v-129q0 -138 -87 -220.5t-218 -82.5q-129 0 -215 82.5t-86 220.5v678q0 138 86 220.5t215 82.5q131 0 218 -82.5t87 -220.5v-54h-166v43q0 63 -36.5 98t-96.5 35q-59 0 -95 -35t-36 -98zM406 1673h198
l-219 -323h-160z" />
    <glyph glyph-name="Cdotaccent" unicode="&#x10a;" horiz-adv-x="776" 
d="M270 1311v-1018q0 -67 37.5 -103t100.5 -36t101 36t38 103v33l174 45v-82q0 -144 -92.5 -231t-229.5 -87q-135 0 -225 87t-90 231v1026q0 146 90.5 231.5t235.5 85.5q143 0 227 -85t84 -232v-53h-174v49q0 68 -35.5 103.5t-99.5 35.5q-66 0 -104 -35.5t-38 -103.5z
M412 2003q53 0 80.5 -31t27.5 -80q0 -50 -27.5 -82t-80.5 -32q-50 0 -77.5 32t-27.5 82q0 48 27.5 79.5t77.5 31.5z" />
    <glyph glyph-name="cdotaccent" unicode="&#x10b;" horiz-adv-x="757" 
d="M260 954v-657q0 -63 36 -98t95 -35q60 0 96.5 35t36.5 98v76l166 43v-129q0 -138 -87 -220.5t-218 -82.5q-129 0 -215 82.5t-86 220.5v678q0 138 86 220.5t215 82.5q131 0 218 -82.5t87 -220.5v-54h-166v43q0 63 -36.5 98t-96.5 35q-59 0 -95 -35t-36 -98zM393 1651
q53 0 81 -31.5t28 -79.5q0 -50 -28 -82.5t-81 -32.5q-50 0 -77 32.5t-27 82.5q0 48 27 79.5t77 31.5z" />
    <glyph glyph-name="Ccaron" unicode="&#x10c;" horiz-adv-x="776" 
d="M270 1311v-1018q0 -67 37.5 -103t100.5 -36t101 36t38 103v33l174 45v-82q0 -144 -92.5 -231t-229.5 -87q-135 0 -225 87t-90 231v1026q0 146 90.5 231.5t235.5 85.5q143 0 227 -85t84 -232v-53h-174v49q0 68 -35.5 103.5t-99.5 35.5q-66 0 -104 -35.5t-38 -103.5z
M115 2025h153l146 -237l149 237h152l-201 -323h-197z" />
    <glyph glyph-name="ccaron" unicode="&#x10d;" horiz-adv-x="757" 
d="M260 954v-657q0 -63 36 -98t95 -35q60 0 96.5 35t36.5 98v76l166 43v-129q0 -138 -87 -220.5t-218 -82.5q-129 0 -215 82.5t-86 220.5v678q0 138 86 220.5t215 82.5q131 0 218 -82.5t87 -220.5v-54h-166v43q0 63 -36.5 98t-96.5 35q-59 0 -95 -35t-36 -98zM94 1673h154
l145 -237l150 237h151l-200 -323h-197z" />
    <glyph glyph-name="Dcaron" unicode="&#x10e;" horiz-adv-x="829" 
d="M94 1604h332q151 0 235 -93t84 -276v-866q0 -183 -84 -276t-235 -93h-332v1604zM283 1421v-1239h129q147 0 147 174v891q0 174 -147 174h-129zM74 2025h153l146 -237l149 237h152l-201 -323h-197z" />
    <glyph glyph-name="dcaron" unicode="&#x10f;" horiz-adv-x="1034" 
d="M543 1624l182 45v-1669h-125l-31 78q-100 -94 -227 -94q-110 0 -184 78.5t-74 224.5v678q0 146 74 224.5t184 78.5q107 0 201 -72v428zM266 926v-600q0 -162 127 -162q81 0 150 72v780q-68 71 -150 71q-127 0 -127 -161zM872 1651h181l-90 -389h-144z" />
    <glyph glyph-name="Dcroat" unicode="&#x110;" horiz-adv-x="854" 
d="M119 1604h332q151 0 235 -93t84 -276v-866q0 -183 -84 -276t-235 -93h-332v735h-101v183h101v686zM307 1421v-503h168v-183h-168v-553h129q148 0 148 174v891q0 174 -148 174h-129z" />
    <glyph glyph-name="dmacron" unicode="&#x111;" horiz-adv-x="819" 
d="M143 1513h400v111l182 45v-156h82v-137h-82v-1376h-125l-31 78q-100 -94 -227 -94q-110 0 -184 78.5t-74 224.5v678q0 146 74 224.5t184 78.5q107 0 201 -72v180h-400v137zM266 926v-600q0 -162 127 -162q81 0 150 72v780q-68 71 -150 71q-127 0 -127 -161z" />
    <glyph glyph-name="Emacron" unicode="&#x112;" horiz-adv-x="684" 
d="M94 1604h531v-183h-342v-503h241v-183h-241v-553h342v-182h-531v1604zM31 1948h663v-138h-663v138z" />
    <glyph glyph-name="emacron" unicode="&#x113;" horiz-adv-x="768" 
d="M494 561q-94 -81 -234 -168v-100q0 -63 36 -98t95 -35q60 0 96.5 35t36.5 98v80l166 43v-129q0 -138 -87 -220.5t-218 -82.5q-129 0 -215 82.5t-86 220.5v678q0 138 86 220.5t217 82.5q59 0 110.5 -17t97.5 -53.5t72.5 -103t26.5 -156.5q0 -114 -47 -202t-153 -175z
M260 956v-387q91 60 141 107q63 58 90 116.5t27 133.5q0 91 -37 132.5t-96 41.5t-92 -38.5t-33 -105.5zM53 1595h664v-137h-664v137z" />
    <glyph glyph-name="Ebreve" unicode="&#x114;" horiz-adv-x="684" 
d="M94 1604h531v-183h-342v-503h241v-183h-241v-553h342v-182h-531v1604zM102 2025h136q6 -112 37.5 -161t86.5 -49q114 0 125 210h134q-3 -64 -19.5 -119t-46.5 -100.5t-79.5 -71.5t-113.5 -26t-114 26.5t-80 72t-46.5 100.5t-19.5 118z" />
    <glyph glyph-name="ebreve" unicode="&#x115;" horiz-adv-x="768" 
d="M494 561q-94 -81 -234 -168v-100q0 -63 36 -98t95 -35q60 0 96.5 35t36.5 98v80l166 43v-129q0 -138 -87 -220.5t-218 -82.5q-129 0 -215 82.5t-86 220.5v678q0 138 86 220.5t217 82.5q59 0 110.5 -17t97.5 -53.5t72.5 -103t26.5 -156.5q0 -114 -47 -202t-153 -175z
M260 956v-387q91 60 141 107q63 58 90 116.5t27 133.5q0 91 -37 132.5t-96 41.5t-92 -38.5t-33 -105.5zM123 1673h135q11 -211 125 -211t125 211h133q-7 -136 -71 -226.5t-187 -90.5q-64 0 -114 26.5t-80 72t-46.5 100.5t-19.5 118z" />
    <glyph glyph-name="Edotaccent" unicode="&#x116;" horiz-adv-x="684" 
d="M94 1604h531v-183h-342v-503h241v-183h-241v-553h342v-182h-531v1604zM362 2003q53 0 81 -31.5t28 -79.5q0 -50 -28 -82t-81 -32q-50 0 -77 32t-27 82q0 48 27 79.5t77 31.5z" />
    <glyph glyph-name="edotaccent" unicode="&#x117;" horiz-adv-x="768" 
d="M494 561q-94 -81 -234 -168v-100q0 -63 36 -98t95 -35q60 0 96.5 35t36.5 98v80l166 43v-129q0 -138 -87 -220.5t-218 -82.5q-129 0 -215 82.5t-86 220.5v678q0 138 86 220.5t217 82.5q59 0 110.5 -17t97.5 -53.5t72.5 -103t26.5 -156.5q0 -114 -47 -202t-153 -175z
M260 956v-387q91 60 141 107q63 58 90 116.5t27 133.5q0 91 -37 132.5t-96 41.5t-92 -38.5t-33 -105.5zM383 1651q53 0 81 -31.5t28 -79.5q0 -50 -28 -82.5t-81 -32.5q-50 0 -77 32.5t-27 82.5q0 48 27 79.5t77 31.5z" />
    <glyph glyph-name="Eogonek" unicode="&#x118;" horiz-adv-x="684" 
d="M379 -43l137 43h-422v1604h531v-183h-342v-503h241v-183h-241v-553h342v-182l-174 -76q-67 -30 -92 -54.5t-25 -57.5q0 -41 30 -62.5t101 -21.5q103 0 153 36l60 -124q-28 -30 -91.5 -50t-150.5 -20q-75 0 -129.5 16t-82.5 44t-40 58.5t-12 65.5q0 72 51 121t156 82z" />
    <glyph glyph-name="eogonek" unicode="&#x119;" horiz-adv-x="768" 
d="M242 -43l94 31q-112 14 -182 94t-70 205v678q0 138 86 220.5t217 82.5q59 0 110.5 -17t97.5 -53.5t72.5 -103t26.5 -156.5q0 -114 -47 -202t-153 -175q-94 -81 -234 -168v-100q0 -63 36 -98t95 -35q60 0 96.5 35t36.5 98v80l166 43v-129q0 -112 -59 -188.5t-154 -102.5
l-164 -72q-67 -30 -91.5 -54.5t-24.5 -57.5q0 -41 30 -62.5t101 -21.5q103 0 153 36l60 -124q-28 -30 -91.5 -50t-150.5 -20q-75 0 -129.5 16t-82.5 44t-40 58.5t-12 65.5q0 72 51 121t156 82zM260 956v-387q91 60 141 107q63 58 90 116.5t27 133.5q0 91 -37 132.5t-96 41.5
t-92 -38.5t-33 -105.5z" />
    <glyph glyph-name="Ecaron" unicode="&#x11a;" horiz-adv-x="684" 
d="M94 1604h531v-183h-342v-503h241v-183h-241v-553h342v-182h-531v1604zM63 2025h154l145 -237l150 237h152l-201 -323h-197z" />
    <glyph glyph-name="ecaron" unicode="&#x11b;" horiz-adv-x="768" 
d="M494 561q-94 -81 -234 -168v-100q0 -63 36 -98t95 -35q60 0 96.5 35t36.5 98v80l166 43v-129q0 -138 -87 -220.5t-218 -82.5q-129 0 -215 82.5t-86 220.5v678q0 138 86 220.5t217 82.5q59 0 110.5 -17t97.5 -53.5t72.5 -103t26.5 -156.5q0 -114 -47 -202t-153 -175z
M260 956v-387q91 60 141 107q63 58 90 116.5t27 133.5q0 91 -37 132.5t-96 41.5t-92 -38.5t-33 -105.5zM84 1673h154l145 -237l149 237h152l-201 -323h-196z" />
    <glyph glyph-name="Gbreve" unicode="&#x11e;" horiz-adv-x="804" 
d="M266 1311v-1018q0 -67 37 -103t100 -36q64 0 106 36.5t42 102.5v426h-160v170h324v-889h-117l-8 70q-89 -99 -221 -99q-125 0 -205 86.5t-80 231.5v1026q0 145 90.5 231t233.5 86q142 0 227.5 -85t85.5 -232v-53h-174v49q0 67 -37 103t-100 36q-66 0 -105 -36t-39 -103z
M147 2025h136q11 -210 125 -210q55 0 86.5 49t37.5 161h134q-7 -136 -71 -226.5t-187 -90.5q-64 0 -114 26.5t-80.5 72t-47 100.5t-19.5 118z" />
    <glyph glyph-name="gbreve" unicode="&#x11f;" horiz-adv-x="802" 
d="M86 633v332q0 138 88.5 220.5t222.5 82.5q96 0 166 -43l228 12l-103 -158q21 -61 21 -114v-332q0 -137 -89.5 -220t-222.5 -83q-37 0 -71 6q-50 -41 -50 -98q0 -86 105 -86h358l-71 -156h-351q-124 0 -124 -96q0 -42 26.5 -69.5t75.5 -27.5h287l-72 -153h-250
q-120 0 -187 70t-67 171q0 76 39 136t113 90q-29 43 -29 102q0 97 90 158q-63 37 -98 103.5t-35 152.5zM258 963v-328q0 -66 38 -101.5t101 -35.5q62 0 101 36t39 101v328q0 67 -38.5 102t-101.5 35q-64 0 -101.5 -35t-37.5 -102zM141 1673h135q11 -211 125 -211t125 211
h133q-7 -136 -71 -226.5t-187 -90.5q-64 0 -114 26.5t-80 72t-46.5 100.5t-19.5 118z" />
    <glyph glyph-name="Gdotaccent" unicode="&#x120;" horiz-adv-x="804" 
d="M266 1311v-1018q0 -67 37 -103t100 -36q64 0 106 36.5t42 102.5v426h-160v170h324v-889h-117l-8 70q-89 -99 -221 -99q-125 0 -205 86.5t-80 231.5v1026q0 145 90.5 231t233.5 86q142 0 227.5 -85t85.5 -232v-53h-174v49q0 67 -37 103t-100 36q-66 0 -105 -36t-39 -103z
M408 2003q53 0 80.5 -31t27.5 -80q0 -50 -27.5 -82t-80.5 -32q-50 0 -77.5 32t-27.5 82q0 48 27.5 79.5t77.5 31.5z" />
    <glyph glyph-name="gdotaccent" unicode="&#x121;" horiz-adv-x="802" 
d="M86 633v332q0 138 88.5 220.5t222.5 82.5q96 0 166 -43l228 12l-103 -158q21 -61 21 -114v-332q0 -137 -89.5 -220t-222.5 -83q-37 0 -71 6q-50 -41 -50 -98q0 -86 105 -86h358l-71 -156h-351q-124 0 -124 -96q0 -42 26.5 -69.5t75.5 -27.5h287l-72 -153h-250
q-120 0 -187 70t-67 171q0 76 39 136t113 90q-29 43 -29 102q0 97 90 158q-63 37 -98 103.5t-35 152.5zM258 963v-328q0 -66 38 -101.5t101 -35.5q62 0 101 36t39 101v328q0 67 -38.5 102t-101.5 35q-64 0 -101.5 -35t-37.5 -102zM399 1651q53 0 81 -31.5t28 -79.5
q0 -50 -28 -82.5t-81 -32.5q-50 0 -77 32.5t-27 82.5q0 48 27 79.5t77 31.5z" />
    <glyph glyph-name="Gcommaaccent" unicode="&#x122;" horiz-adv-x="804" 
d="M266 1311v-1018q0 -67 37 -103t100 -36q64 0 106 36.5t42 102.5v426h-160v170h324v-889h-117l-8 70q-89 -99 -221 -99q-125 0 -205 86.5t-80 231.5v1026q0 145 90.5 231t233.5 86q142 0 227.5 -85t85.5 -232v-53h-174v49q0 67 -37 103t-100 36q-66 0 -105 -36t-39 -103z
M303 -41h180l-90 -389h-143z" />
    <glyph glyph-name="gcommaaccent" unicode="&#x123;" horiz-adv-x="802" 
d="M86 633v332q0 138 88.5 220.5t222.5 82.5q96 0 166 -43l228 12l-103 -158q21 -61 21 -114v-332q0 -137 -89.5 -220t-222.5 -83q-37 0 -71 6q-50 -41 -50 -98q0 -86 105 -86h358l-71 -156h-351q-124 0 -124 -96q0 -42 26.5 -69.5t75.5 -27.5h287l-72 -153h-250
q-120 0 -187 70t-67 171q0 76 39 136t113 90q-29 43 -29 102q0 97 90 158q-63 37 -98 103.5t-35 152.5zM258 963v-328q0 -66 38 -101.5t101 -35.5q62 0 101 36t39 101v328q0 67 -38.5 102t-101.5 35q-64 0 -101.5 -35t-37.5 -102zM475 1909h66l-19 -414q-2 -52 -27.5 -82.5
t-76.5 -30.5q-53 0 -81 32t-28 79q0 33 23 86z" />
    <glyph glyph-name="Hbar" unicode="&#x126;" horiz-adv-x="964" 
d="M27 1333h125v271h188v-271h285v271h188v-271h123v-137h-123v-1196h-188v725h-285v-725h-188v1196h-125v137zM340 905h285v291h-285v-291z" />
    <glyph glyph-name="hbar" unicode="&#x127;" horiz-adv-x="825" 
d="M94 1624l182 45v-156h400v-137h-400v-174q87 66 197 66q114 0 188 -78t74 -225v-965h-182v926q0 161 -131 161q-78 0 -146 -65v-1022h-182v1376h-82v137h82v111z" />
    <glyph glyph-name="Itilde" unicode="&#x128;" horiz-adv-x="577" 
d="M195 1604h188v-1604h-188v1604zM12 1776l-73 65q76 156 213 156q44 0 84 -15.5t65 -34t60 -34t69 -15.5q87 0 135 101l74 -66q-77 -157 -207 -157q-41 0 -80.5 15.5t-66.5 33.5t-64 33.5t-74 15.5q-90 0 -135 -98z" />
    <glyph glyph-name="itilde" unicode="&#x129;" horiz-adv-x="606" 
d="M27 1423l-74 66q76 156 213 156q44 0 84 -15.5t65 -34t60 -34t69 -15.5q88 0 136 101l73 -66q-77 -158 -207 -158q-41 0 -80.5 15.5t-66 34t-63.5 34t-74 15.5q-89 0 -135 -99zM213 1251h182v-1251h-182v1251z" />
    <glyph glyph-name="Imacron" unicode="&#x12a;" horiz-adv-x="530" 
d="M170 1604h188v-1604h-188v1604zM-66 1948h664v-138h-664v138z" />
    <glyph glyph-name="imacron" unicode="&#x12b;" horiz-adv-x="583" 
d="M-41 1595h664v-137h-664v137zM201 1251h182v-1251h-182v1251z" />
    <glyph glyph-name="Ibreve" unicode="&#x12c;" horiz-adv-x="438" 
d="M125 1604h188v-1604h-188v1604zM-41 2025h135q11 -210 125 -210t125 210h133q-7 -136 -71 -226.5t-187 -90.5q-64 0 -114 26.5t-80 72t-46.5 100.5t-19.5 118z" />
    <glyph glyph-name="ibreve" unicode="&#x12d;" horiz-adv-x="468" 
d="M-27 1673h136q6 -112 37.5 -161.5t86.5 -49.5q114 0 125 211h134q-3 -64 -19.5 -119t-46.5 -100.5t-79.5 -71.5t-113.5 -26t-114 26.5t-80 72t-46.5 100.5t-19.5 118zM143 1251h183v-1251h-183v1251z" />
    <glyph glyph-name="Iogonek" unicode="&#x12e;" horiz-adv-x="405" 
d="M123 -25v1629h188v-1604l-174 -76q-67 -30 -92 -54.5t-25 -57.5q0 -84 132 -84q103 0 153 36l60 -124q-28 -30 -91.5 -50t-150.5 -20q-75 0 -129.5 16t-82.5 44t-40 58.5t-12 65.5q0 74 59.5 125t204.5 96z" />
    <glyph glyph-name="iogonek" unicode="&#x12f;" horiz-adv-x="403" 
d="M127 1251h182v-1251l-174 -76q-67 -30 -92 -54.5t-25 -57.5q0 -84 132 -84q103 0 153 36l59 -124q-28 -30 -91 -50t-150 -20q-75 0 -129.5 16t-82.5 44t-40 58.5t-12 65.5q0 74 60.5 125t209.5 98v1274zM217 1651q53 0 81 -31.5t28 -79.5q0 -50 -28 -82.5t-81 -32.5
q-50 0 -77 32.5t-27 82.5q0 48 27 79.5t77 31.5z" />
    <glyph glyph-name="Idotaccent" unicode="&#x130;" horiz-adv-x="376" 
d="M94 1604h189v-1604h-189v1604zM186 2003q53 0 81 -31.5t28 -79.5q0 -50 -28 -82t-81 -32q-50 0 -77 32t-27 82q0 48 27 79.5t77 31.5z" />
    <glyph glyph-name="dotlessi" unicode="&#x131;" horiz-adv-x="370" 
d="M94 1251h182v-1251h-182v1251z" />
    <glyph glyph-name="IJ" unicode="&#x132;" horiz-adv-x="1124" 
d="M94 1604h189v-1604h-189v1604zM848 1604h186v-1315q0 -145 -89.5 -231.5t-229.5 -86.5q-141 0 -229.5 86t-88.5 232v82l174 -45v-33q0 -67 37.5 -103t100.5 -36q64 0 101.5 35.5t37.5 103.5v1311z" />
    <glyph glyph-name="ij" unicode="&#x133;" horiz-adv-x="780" 
d="M94 1251h182v-1251h-182v1251zM508 1251h176v-1304q0 -140 -70.5 -231t-210.5 -91q-100 0 -167 49l49 158q46 -35 92 -35q60 0 95.5 40.5t35.5 109.5v1304zM596 1651q53 0 81 -31.5t28 -79.5q0 -50 -28 -82.5t-81 -32.5q-50 0 -77 32.5t-27 82.5q0 48 27 79.5t77 31.5z
M182 1651q53 0 81 -31.5t28 -79.5q0 -50 -28 -82.5t-81 -32.5q-50 0 -77 32.5t-27 82.5q0 48 27 79.5t77 31.5z" />
    <glyph glyph-name="Kcommaaccent" unicode="&#x136;" horiz-adv-x="792" 
d="M549 1604h192l-299 -656l324 -948h-197l-286 866v-866h-189v1604h189v-596zM319 -41h181l-90 -389h-144z" />
    <glyph glyph-name="kcommaaccent" unicode="&#x137;" horiz-adv-x="768" 
d="M530 1251h187l-287 -512l311 -739h-188l-277 674v-674h-182v1624l182 45v-883zM313 -41h181l-91 -389h-143z" />
    <glyph glyph-name="Lacute" unicode="&#x139;" horiz-adv-x="624" 
d="M94 1604h189v-1422h301v-182h-490v1604zM276 2025h199l-219 -323h-160z" />
    <glyph glyph-name="lacute" unicode="&#x13a;" horiz-adv-x="370" 
d="M94 1624l182 45v-1669h-182v1624zM205 2025h198l-219 -323h-159z" />
    <glyph glyph-name="Lcommaaccent" unicode="&#x13b;" horiz-adv-x="624" 
d="M94 1604h189v-1422h301v-182h-490v1604zM246 -41h180l-90 -389h-143z" />
    <glyph glyph-name="lcommaaccent" unicode="&#x13c;" horiz-adv-x="370" 
d="M94 1624l182 45v-1669h-182v1624zM96 -41h180l-90 -389h-143z" />
    <glyph glyph-name="Lcaron" unicode="&#x13d;" horiz-adv-x="679" 
d="M94 1604h189v-1422h301v-182h-490v1604zM465 1651h180l-90 -389h-143z" />
    <glyph glyph-name="lcaron" unicode="&#x13e;" horiz-adv-x="583" 
d="M94 1624l182 45v-1669h-182v1624zM422 1651h180l-90 -389h-143z" />
    <glyph glyph-name="Lslash" unicode="&#x141;" horiz-adv-x="720" 
d="M137 1604h189v-574l266 154l65 -113l-331 -192v-697h301v-182h-490v768l-71 -41l-66 115l137 78v684z" />
    <glyph glyph-name="lslash" unicode="&#x142;" horiz-adv-x="636" 
d="M229 1624l183 45v-526l170 98l65 -113l-235 -137v-991h-183v885l-174 -101l-65 115l239 137v588z" />
    <glyph glyph-name="Nacute" unicode="&#x143;" horiz-adv-x="829" 
d="M94 1604h205l272 -1106v1106h164v-1604h-168l-309 1180v-1180h-164v1604zM418 2025h198l-219 -323h-159z" />
    <glyph glyph-name="nacute" unicode="&#x144;" horiz-adv-x="825" 
d="M94 1251h125l29 -71q97 88 225 88q114 0 188 -78t74 -225v-965h-182v926q0 161 -131 161q-78 0 -146 -65v-1022h-182v1251zM422 1673h199l-220 -323h-159z" />
    <glyph glyph-name="Ncommaaccent" unicode="&#x145;" horiz-adv-x="829" 
d="M94 1604h205l272 -1106v1106h164v-1604h-168l-309 1180v-1180h-164v1604zM324 -41h180l-90 -389h-144z" />
    <glyph glyph-name="ncommaaccent" unicode="&#x146;" horiz-adv-x="825" 
d="M94 1251h125l29 -71q97 88 225 88q114 0 188 -78t74 -225v-965h-182v926q0 161 -131 161q-78 0 -146 -65v-1022h-182v1251zM326 -41h180l-90 -389h-144z" />
    <glyph glyph-name="Ncaron" unicode="&#x147;" horiz-adv-x="829" 
d="M94 1604h205l272 -1106v1106h164v-1604h-168l-309 1180v-1180h-164v1604zM115 2025h153l146 -237l149 237h152l-201 -323h-197z" />
    <glyph glyph-name="ncaron" unicode="&#x148;" horiz-adv-x="825" 
d="M94 1251h125l29 -71q97 88 225 88q114 0 188 -78t74 -225v-965h-182v926q0 161 -131 161q-78 0 -146 -65v-1022h-182v1251zM113 1673h153l146 -237l149 237h152l-201 -323h-197z" />
    <glyph glyph-name="Eng" unicode="&#x14a;" horiz-adv-x="829" 
d="M94 1604h205l272 -1106v1106h164v-1657q0 -91 -28 -161.5t-92.5 -115.5t-159.5 -45q-101 0 -168 49l49 158q46 -35 92 -35q61 0 102 41t41 109v49l-313 1184v-1180h-164v1604z" />
    <glyph glyph-name="eng" unicode="&#x14b;" horiz-adv-x="825" 
d="M553 926q0 161 -131 161q-78 0 -146 -65v-1022h-182v1251h125l29 -71q97 88 225 88q114 0 188 -78t74 -225v-1018q0 -91 -28 -161.5t-92.5 -115.5t-159.5 -45q-101 0 -168 49l49 158q46 -35 92 -35q59 0 92 40t33 110v979z" />
    <glyph glyph-name="Omacron" unicode="&#x14c;" horiz-adv-x="827" 
d="M743 1311v-1018q0 -147 -94 -234.5t-235 -87.5q-142 0 -236 87.5t-94 234.5v1018q0 147 94 234t236 87q141 0 235 -87t94 -234zM270 1309v-1014q0 -67 39.5 -104t104.5 -37t104 37t39 104v1014q0 67 -39 104t-104 37t-104.5 -37t-39.5 -104zM82 1948h663v-138h-663v138z
" />
    <glyph glyph-name="omacron" unicode="&#x14d;" horiz-adv-x="790" 
d="M707 965v-678q0 -137 -89.5 -220t-222.5 -83q-134 0 -222.5 82.5t-88.5 220.5v678q0 138 88.5 220.5t222.5 82.5q133 0 222.5 -83t89.5 -220zM260 954v-657q0 -63 37.5 -98t97.5 -35t96.5 35t36.5 98v657q0 63 -36.5 98t-96.5 35t-97.5 -35t-37.5 -98zM63 1595h664v-137
h-664v137z" />
    <glyph glyph-name="Obreve" unicode="&#x14e;" horiz-adv-x="827" 
d="M743 1311v-1018q0 -147 -94 -234.5t-235 -87.5q-142 0 -236 87.5t-94 234.5v1018q0 147 94 234t236 87q141 0 235 -87t94 -234zM270 1309v-1014q0 -67 39.5 -104t104.5 -37t104 37t39 104v1014q0 67 -39 104t-104 37t-104.5 -37t-39.5 -104zM154 2025h135
q11 -210 125 -210t125 210h133q-7 -136 -71 -226.5t-187 -90.5q-64 0 -114 26.5t-80 72t-46.5 100.5t-19.5 118z" />
    <glyph glyph-name="obreve" unicode="&#x14f;" horiz-adv-x="790" 
d="M707 965v-678q0 -137 -89.5 -220t-222.5 -83q-134 0 -222.5 82.5t-88.5 220.5v678q0 138 88.5 220.5t222.5 82.5q133 0 222.5 -83t89.5 -220zM260 954v-657q0 -63 37.5 -98t97.5 -35t96.5 35t36.5 98v657q0 63 -36.5 98t-96.5 35t-97.5 -35t-37.5 -98zM135 1673h135
q11 -211 125 -211t125 211h133q-7 -136 -71 -226.5t-187 -90.5q-64 0 -114 26.5t-80 72t-46.5 100.5t-19.5 118z" />
    <glyph glyph-name="Ohungarumlaut" unicode="&#x150;" horiz-adv-x="827" 
d="M743 1311v-1018q0 -147 -94 -234.5t-235 -87.5q-142 0 -236 87.5t-94 234.5v1018q0 147 94 234t236 87q141 0 235 -87t94 -234zM270 1309v-1014q0 -67 39.5 -104t104.5 -37t104 37t39 104v1014q0 67 -39 104t-104 37t-104.5 -37t-39.5 -104zM582 2025h198l-217 -323h-162
zM264 2025h199l-219 -323h-160z" />
    <glyph glyph-name="ohungarumlaut" unicode="&#x151;" horiz-adv-x="790" 
d="M707 965v-678q0 -137 -89.5 -220t-222.5 -83q-134 0 -222.5 82.5t-88.5 220.5v678q0 138 88.5 220.5t222.5 82.5q133 0 222.5 -83t89.5 -220zM260 954v-657q0 -63 37.5 -98t97.5 -35t96.5 35t36.5 98v657q0 63 -36.5 98t-96.5 35t-97.5 -35t-37.5 -98zM563 1673h199
l-217 -323h-162zM246 1673h198l-219 -323h-159z" />
    <glyph glyph-name="OE" unicode="&#x152;" horiz-adv-x="1146" 
d="M1087 0h-530q-69 -29 -143 -29q-142 0 -236 87.5t-94 234.5v1018q0 147 94 234t236 87q76 0 143 -28h530v-183h-342v-503h242v-183h-242v-553h342v-182zM270 1309v-1014q0 -67 39.5 -104t104.5 -37q61 0 100 33.5t43 93.5v1028q0 67 -39 104t-104 37t-104.5 -37
t-39.5 -104z" />
    <glyph glyph-name="oe" unicode="&#x153;" horiz-adv-x="1214" 
d="M940 561q-97 -83 -233 -168v-100q0 -65 37 -99t94 -34q60 0 96.5 35t36.5 98v80l166 43v-129q0 -138 -87.5 -220.5t-218.5 -82.5q-133 0 -215 82q-88 -82 -221 -82q-134 0 -222.5 82.5t-88.5 220.5v678q0 138 88.5 220.5t222.5 82.5q131 0 221 -84q84 84 218 84
q59 0 110.5 -17t97.5 -53.5t72.5 -103t26.5 -156.5q0 -114 -47.5 -201.5t-153.5 -175.5zM707 956v-387q91 60 141 107q63 58 90 116.5t27 133.5q0 91 -37.5 132.5t-96.5 41.5q-58 0 -91 -38t-33 -106zM260 954v-657q0 -63 37.5 -98t97.5 -35t96.5 35t36.5 98v657
q0 63 -36.5 98t-96.5 35t-97.5 -35t-37.5 -98z" />
    <glyph glyph-name="Racute" unicode="&#x154;" horiz-adv-x="827" 
d="M94 1604h326q148 0 232.5 -84.5t84.5 -233.5v-223q0 -93 -27.5 -147.5t-84.5 -79.5q125 -52 125 -234v-602h-187v608q0 77 -31 108.5t-114 31.5h-139v-748h-185v1604zM279 1425v-516h127q82 0 114.5 33.5t32.5 112.5v209q0 78 -37.5 119.5t-109.5 41.5h-127zM420 2025
h198l-219 -323h-159z" />
    <glyph glyph-name="racute" unicode="&#x155;" horiz-adv-x="638" 
d="M616 1214l-51 -161q-56 34 -114 34q-104 0 -175 -106v-981h-182v1251h125l35 -104q80 121 211 121q88 0 151 -54zM332 1673h198l-219 -323h-159z" />
    <glyph glyph-name="Rcommaaccent" unicode="&#x156;" horiz-adv-x="827" 
d="M94 1604h326q148 0 232.5 -84.5t84.5 -233.5v-223q0 -93 -27.5 -147.5t-84.5 -79.5q125 -52 125 -234v-602h-187v608q0 77 -31 108.5t-114 31.5h-139v-748h-185v1604zM279 1425v-516h127q82 0 114.5 33.5t32.5 112.5v209q0 78 -37.5 119.5t-109.5 41.5h-127zM322 -41h180
l-90 -389h-144z" />
    <glyph glyph-name="rcommaaccent" unicode="&#x157;" horiz-adv-x="638" 
d="M616 1214l-51 -161q-56 34 -114 34q-104 0 -175 -106v-981h-182v1251h125l35 -104q80 121 211 121q88 0 151 -54zM92 -41h180l-90 -389h-143z" />
    <glyph glyph-name="Rcaron" unicode="&#x158;" horiz-adv-x="827" 
d="M94 1604h326q148 0 232.5 -84.5t84.5 -233.5v-223q0 -93 -27.5 -147.5t-84.5 -79.5q125 -52 125 -234v-602h-187v608q0 77 -31 108.5t-114 31.5h-139v-748h-185v1604zM279 1425v-516h127q82 0 114.5 33.5t32.5 112.5v209q0 78 -37.5 119.5t-109.5 41.5h-127zM113 2025
h153l146 -237l149 237h152l-201 -323h-197z" />
    <glyph glyph-name="rcaron" unicode="&#x159;" horiz-adv-x="638" 
d="M616 1214l-51 -161q-56 34 -114 34q-104 0 -175 -106v-981h-182v1251h125l35 -104q80 121 211 121q88 0 151 -54zM20 1673h154l145 -237l150 237h152l-201 -323h-197z" />
    <glyph glyph-name="Sacute" unicode="&#x15a;" horiz-adv-x="770" 
d="M391 1632q143 0 226 -86t83 -227v-57h-174v43q0 70 -37 110.5t-102 40.5q-72 0 -109.5 -48.5t-37.5 -123.5q0 -101 84 -221q23 -31 88.5 -117t120.5 -162t88 -129q48 -76 69 -144.5t21 -154.5q0 -182 -81 -283.5t-241 -101.5q-154 0 -246 89.5t-92 224.5v86l174 -45v-39
q0 -60 41.5 -102t110.5 -42q75 0 114 49t39 140q0 116 -79 239q-26 40 -125 166t-140 191q-120 189 -120 358q0 159 88.5 252.5t236.5 93.5zM395 2025h199l-219 -323h-160z" />
    <glyph glyph-name="sacute" unicode="&#x15b;" horiz-adv-x="747" 
d="M383 1268q149 0 225 -77t76 -198v-82h-166v58q0 62 -35 94.5t-102 32.5q-69 0 -104 -32t-35 -89q0 -71 75 -152q32 -35 139 -132t146 -146q88 -109 88 -252t-78.5 -226t-236.5 -83q-150 0 -235 77t-85 213v142l166 -43v-84q0 -61 39.5 -96t114.5 -35q145 0 145 141
q0 43 -15 77t-56 81q-48 55 -149.5 146.5t-135.5 131.5q-98 117 -98 250q0 135 85 209t232 74zM383 1673h199l-220 -323h-159z" />
    <glyph glyph-name="Scedilla" unicode="&#x15e;" horiz-adv-x="770" 
d="M391 1632q143 0 226 -86t83 -227v-57h-174v43q0 70 -37 110.5t-102 40.5q-72 0 -109.5 -48.5t-37.5 -123.5q0 -101 84 -221q23 -31 88.5 -117t120.5 -162t88 -129q48 -76 69 -144.5t21 -154.5q0 -182 -81 -283.5t-241 -101.5q-154 0 -246 89.5t-92 224.5v86l174 -45v-39
q0 -60 41.5 -102t110.5 -42q75 0 114 49t39 140q0 116 -79 239q-26 40 -125 166t-140 191q-120 189 -120 358q0 159 88.5 252.5t236.5 93.5zM285 -41h180l-90 -389h-144z" />
    <glyph glyph-name="scedilla" unicode="&#x15f;" horiz-adv-x="747" 
d="M383 1268q149 0 225 -77t76 -198v-82h-166v58q0 62 -35 94.5t-102 32.5q-69 0 -104 -32t-35 -89q0 -71 75 -152q32 -35 139 -132t146 -146q88 -109 88 -252t-78.5 -226t-236.5 -83q-150 0 -235 77t-85 213v142l166 -43v-84q0 -61 39.5 -96t114.5 -35q145 0 145 141
q0 43 -15 77t-56 81q-48 55 -149.5 146.5t-135.5 131.5q-98 117 -98 250q0 135 85 209t232 74zM281 -41h180l-90 -389h-144z" />
    <glyph glyph-name="Scaron" unicode="&#x160;" horiz-adv-x="770" 
d="M391 1632q143 0 226 -86t83 -227v-57h-174v43q0 70 -37 110.5t-102 40.5q-72 0 -109.5 -48.5t-37.5 -123.5q0 -101 84 -221q23 -31 88.5 -117t120.5 -162t88 -129q48 -76 69 -144.5t21 -154.5q0 -182 -81 -283.5t-241 -101.5q-154 0 -246 89.5t-92 224.5v86l174 -45v-39
q0 -60 41.5 -102t110.5 -42q75 0 114 49t39 140q0 116 -79 239q-26 40 -125 166t-140 191q-120 189 -120 358q0 159 88.5 252.5t236.5 93.5zM84 2025h154l145 -237l149 237h152l-201 -323h-196z" />
    <glyph glyph-name="scaron" unicode="&#x161;" horiz-adv-x="747" 
d="M383 1268q149 0 225 -77t76 -198v-82h-166v58q0 62 -35 94.5t-102 32.5q-69 0 -104 -32t-35 -89q0 -71 75 -152q32 -35 139 -132t146 -146q88 -109 88 -252t-78.5 -226t-236.5 -83q-150 0 -235 77t-85 213v142l166 -43v-84q0 -61 39.5 -96t114.5 -35q145 0 145 141
q0 43 -15 77t-56 81q-48 55 -149.5 146.5t-135.5 131.5q-98 117 -98 250q0 135 85 209t232 74zM74 1673h153l146 -237l149 237h152l-201 -323h-197z" />
    <glyph glyph-name="Tcedilla" unicode="&#x162;" horiz-adv-x="630" 
d="M41 1604h549v-183h-180v-1421h-189v1421h-180v183zM221 -41h180l-90 -389h-143z" />
    <glyph glyph-name="tcedilla" unicode="&#x163;" horiz-adv-x="630" 
d="M25 1251h135v219l176 74v-293h209v-153h-209v-791q0 -70 36 -110.5t97 -40.5q49 0 92 32l49 -155q-67 -49 -170 -49q-140 0 -210 90.5t-70 232.5v791h-135v153zM260 -41h180l-90 -389h-143z" />
    <glyph glyph-name="Tcaron" unicode="&#x164;" horiz-adv-x="630" 
d="M41 1604h549v-183h-180v-1421h-189v1421h-180v183zM16 2025h154l145 -237l150 237h151l-200 -323h-197z" />
    <glyph glyph-name="tcaron" unicode="&#x165;" horiz-adv-x="780" 
d="M25 1251h135v219l176 74v-293h209v-153h-209v-791q0 -70 36 -110.5t97 -40.5q49 0 92 32l49 -155q-67 -49 -170 -49q-140 0 -210 90.5t-70 232.5v791h-135v153zM618 1642h181l-90 -389h-144z" />
    <glyph glyph-name="Tbar" unicode="&#x166;" horiz-adv-x="692" 
d="M14 924h238v497h-180v183h549v-183h-181v-497h238v-138h-238v-786h-188v786h-238v138z" />
    <glyph glyph-name="tbar" unicode="&#x167;" horiz-adv-x="712" 
d="M88 1251h135v219l176 74v-293h209v-153h-209v-332h271v-137h-271v-322q0 -70 36 -110.5t97 -40.5q50 0 93 32l49 -155q-67 -49 -170 -49q-140 0 -210.5 90.5t-70.5 232.5v322h-217v137h217v332h-135v153z" />
    <glyph glyph-name="Utilde" unicode="&#x168;" horiz-adv-x="839" 
d="M90 1604h189v-1309q0 -67 39 -104t102 -37q66 0 105.5 36.5t39.5 104.5v1309h185v-1311q0 -147 -94.5 -234.5t-237.5 -87.5q-142 0 -235 87.5t-93 234.5v1311zM143 1776l-73 65q76 156 213 156q44 0 84 -15.5t65 -34t60 -34t69 -15.5q87 0 135 101l74 -66
q-77 -157 -207 -157q-52 0 -99.5 24.5t-93 49t-91.5 24.5q-91 0 -136 -98z" />
    <glyph glyph-name="utilde" unicode="&#x169;" horiz-adv-x="817" 
d="M541 1251h182v-1251h-125l-31 70q-92 -86 -217 -86q-112 0 -186 78t-74 225v964h182v-925q0 -162 129 -162q74 0 140 63v1024zM131 1423l-74 66q76 156 213 156q44 0 84 -15.5t65.5 -34t60.5 -34t69 -15.5q87 0 135 101l74 -66q-77 -158 -207 -158q-41 0 -80.5 15.5
t-66.5 34t-64 34t-74 15.5q-89 0 -135 -99z" />
    <glyph glyph-name="Umacron" unicode="&#x16a;" horiz-adv-x="839" 
d="M90 1604h189v-1309q0 -67 39 -104t102 -37q66 0 105.5 36.5t39.5 104.5v1309h185v-1311q0 -147 -94.5 -234.5t-237.5 -87.5q-142 0 -235 87.5t-93 234.5v1311zM88 1948h664v-138h-664v138z" />
    <glyph glyph-name="umacron" unicode="&#x16b;" horiz-adv-x="817" 
d="M541 1251h182v-1251h-125l-31 70q-92 -86 -217 -86q-112 0 -186 78t-74 225v964h182v-925q0 -162 129 -162q74 0 140 63v1024zM76 1595h663v-137h-663v137z" />
    <glyph glyph-name="Uring" unicode="&#x16e;" horiz-adv-x="839" 
d="M90 1604h189v-1309q0 -67 39 -104t102 -37q66 0 105.5 36.5t39.5 104.5v1309h185v-1311q0 -147 -94.5 -234.5t-237.5 -87.5q-142 0 -235 87.5t-93 234.5v1311zM389 2025h57q83 0 132 -51.5t49 -130.5t-49 -131.5t-132 -52.5h-57q-81 0 -129.5 52.5t-48.5 131.5
t48.5 130.5t129.5 51.5zM446 1925h-57q-34 0 -56 -23t-22 -61q0 -36 22 -59t56 -23h57q35 0 57.5 22.5t22.5 59.5q0 38 -22 61t-58 23z" />
    <glyph glyph-name="uring" unicode="&#x16f;" horiz-adv-x="817" 
d="M541 1251h182v-1251h-125l-31 70q-92 -86 -217 -86q-112 0 -186 78t-74 225v964h182v-925q0 -162 129 -162q74 0 140 63v1024zM379 1673h57q83 0 131.5 -51.5t48.5 -130.5t-49 -131.5t-131 -52.5h-57q-81 0 -129.5 52.5t-48.5 131.5t48.5 130.5t129.5 51.5zM436 1573h-57
q-34 0 -56 -23t-22 -61q0 -36 22 -59t56 -23h57q35 0 57.5 22.5t22.5 59.5q0 38 -22 61t-58 23z" />
    <glyph glyph-name="Uhungarumlaut" unicode="&#x170;" horiz-adv-x="839" 
d="M90 1604h189v-1309q0 -67 39 -104t102 -37q66 0 105.5 36.5t39.5 104.5v1309h185v-1311q0 -147 -94.5 -234.5t-237.5 -87.5q-142 0 -235 87.5t-93 234.5v1311zM592 2025h199l-218 -323h-161zM274 2025h199l-219 -323h-160z" />
    <glyph glyph-name="uhungarumlaut" unicode="&#x171;" horiz-adv-x="817" 
d="M541 1251h182v-1251h-125l-31 70q-92 -86 -217 -86q-112 0 -186 78t-74 225v964h182v-925q0 -162 129 -162q74 0 140 63v1024zM578 1673h198l-217 -323h-162zM260 1673h199l-219 -323h-160z" />
    <glyph glyph-name="Uogonek" unicode="&#x172;" horiz-adv-x="839" 
d="M365 -25q-122 15 -198.5 100t-76.5 218v1311h189v-1309q0 -67 39 -104t102 -37q66 0 105.5 36.5t39.5 104.5v1309h185v-1311q0 -119 -63.5 -199.5t-168.5 -107.5l-137 -62q-67 -30 -92 -54.5t-25 -57.5q0 -41 30 -62.5t101 -21.5q104 0 154 36l59 -124q-28 -30 -91 -50
t-150 -20q-75 0 -129.5 16t-82.5 44t-40.5 58.5t-12.5 65.5q0 74 59.5 125t203.5 96z" />
    <glyph glyph-name="uogonek" unicode="&#x173;" horiz-adv-x="817" 
d="M477 -43l123 39l-33 74q-92 -86 -215 -86q-114 0 -188 78t-74 225v964h182v-925q0 -79 32.5 -120.5t94.5 -41.5q76 0 142 63v1024h182v-1251l-174 -76q-67 -30 -92 -54.5t-25 -57.5q0 -41 30 -62.5t101 -21.5q104 0 154 36l59 -124q-28 -30 -91 -50t-150 -20
q-75 0 -129.5 16t-82.5 44t-40.5 58.5t-12.5 65.5q0 72 51 121t156 82z" />
    <glyph glyph-name="Wcircumflex" unicode="&#x174;" horiz-adv-x="1181" 
d="M45 1604h180l99 -1129l174 1129h180l162 -1135l114 1135h183l-183 -1604h-188l-178 1208l-195 -1208h-182zM492 2025h196l203 -323h-154l-147 235l-148 -235h-151z" />
    <glyph glyph-name="wcircumflex" unicode="&#x175;" horiz-adv-x="1110" 
d="M45 1251h170l90 -882l164 882h168l151 -884l105 884h172l-170 -1251h-178l-166 944l-180 -944h-172zM455 1673h196l203 -323h-154l-147 235l-147 -235h-152z" />
    <glyph glyph-name="Ycircumflex" unicode="&#x176;" horiz-adv-x="843" 
d="M27 1604h190l207 -623l211 623h182l-301 -854v-750h-188v750zM322 2025h196l203 -323h-154l-147 235l-148 -235h-151z" />
    <glyph glyph-name="ycircumflex" unicode="&#x177;" horiz-adv-x="817" 
d="M541 1251h182v-1601h-182v418q-85 -64 -191 -64q-112 0 -186 78t-74 225v944h182v-905q0 -162 129 -162q73 0 140 64v1003zM309 1673h197l203 -323h-154l-147 235l-148 -235h-151z" />
    <glyph glyph-name="Ydieresis" unicode="&#x178;" horiz-adv-x="843" 
d="M27 1604h190l207 -623l211 623h182l-301 -854v-750h-188v750zM590 2003q53 0 80.5 -31t27.5 -80q0 -50 -27.5 -82t-80.5 -32q-50 0 -77.5 32t-27.5 82q0 48 27.5 79.5t77.5 31.5zM248 2003q53 0 80.5 -31t27.5 -80q0 -50 -27.5 -82t-80.5 -32q-50 0 -77.5 32t-27.5 82
q0 48 27.5 79.5t77.5 31.5z" />
    <glyph glyph-name="Zacute" unicode="&#x179;" horiz-adv-x="737" 
d="M66 1604h614v-146l-430 -1276h430v-182h-623v174l428 1247h-419v183zM395 2025h199l-219 -323h-160z" />
    <glyph glyph-name="zacute" unicode="&#x17a;" horiz-adv-x="712" 
d="M63 1251h594v-127l-409 -970h409v-154h-602v150l410 948h-402v153zM381 1673h199l-220 -323h-159z" />
    <glyph glyph-name="Zdotaccent" unicode="&#x17b;" horiz-adv-x="737" 
d="M66 1604h614v-146l-430 -1276h430v-182h-623v174l428 1247h-419v183zM383 2003q53 0 81 -31.5t28 -79.5q0 -50 -28 -82t-81 -32q-50 0 -77 32t-27 82q0 48 27 79.5t77 31.5z" />
    <glyph glyph-name="zdotaccent" unicode="&#x17c;" horiz-adv-x="712" 
d="M63 1251h594v-127l-409 -970h409v-154h-602v150l410 948h-402v153zM369 1651q53 0 80.5 -31t27.5 -80q0 -50 -27.5 -82.5t-80.5 -32.5q-50 0 -77.5 32.5t-27.5 82.5q0 48 27.5 79.5t77.5 31.5z" />
    <glyph glyph-name="Zcaron" unicode="&#x17d;" horiz-adv-x="737" 
d="M66 1604h614v-146l-430 -1276h430v-182h-623v174l428 1247h-419v183zM86 2025h154l145 -237l150 237h151l-201 -323h-196z" />
    <glyph glyph-name="zcaron" unicode="&#x17e;" horiz-adv-x="712" 
d="M63 1251h594v-127l-409 -970h409v-154h-602v150l410 948h-402v153zM70 1673h153l146 -237l149 237h152l-201 -323h-197z" />
    <glyph glyph-name="uni0180" unicode="&#x180;" 
d="M12 1513h82v111l182 45v-156h400v-137h-400v-180q91 72 201 72t184 -78.5t74 -224.5v-678q0 -146 -74 -224.5t-184 -78.5q-130 0 -227 94l-31 -78h-125v1376h-82v137zM426 1087q-82 0 -150 -71v-780q69 -72 150 -72q127 0 127 162v600q0 161 -127 161z" />
    <glyph glyph-name="uni0181" unicode="&#x181;" horiz-adv-x="1138" 
d="M336 1604h399q148 0 233 -84.5t85 -233.5v-223q0 -97 -28.5 -152t-88.5 -80q67 -26 101 -84.5t34 -160.5v-256q0 -157 -85 -243.5t-234 -86.5h-342v1432h-72q-73 0 -116.5 -34t-43.5 -102q0 -54 35 -100l-160 -51q-43 76 -43 174q0 139 90 212t236 73zM594 745v-567h143
q148 0 148 164v246q0 86 -33 121.5t-115 35.5h-143zM594 1425v-518h131q78 0 110.5 33.5t32.5 116.5v207q0 161 -147 161h-127z" />
    <glyph glyph-name="uni0187" unicode="&#x187;" horiz-adv-x="1005" 
d="M270 1311v-1018q0 -67 37.5 -103t100.5 -36t101 36t38 103v33l174 45v-82q0 -144 -92.5 -231t-229.5 -87q-135 0 -225 87t-90 231v1026q0 144 86 230.5t215 86.5q73 0 133 -28.5t92 -75.5q62 158 228 158q94 0 168 -44l-50 -159q-49 35 -102 35q-65 0 -99 -44.5
t-34 -117.5v-105h-174v72q0 61 -36.5 94t-98.5 33q-66 0 -104 -35.5t-38 -103.5z" />
    <glyph glyph-name="uni0188" unicode="&#x188;" horiz-adv-x="983" 
d="M260 954v-657q0 -63 36 -98t95 -35q60 0 96.5 35t36.5 98v76l166 43v-129q0 -138 -87 -220.5t-218 -82.5q-129 0 -215 82.5t-86 220.5v678q0 138 83 220.5t208 82.5q53 0 104.5 -16t81.5 -50q8 125 68.5 200t181.5 75q97 0 170 -43l-49 -160q-49 35 -103 35
q-65 0 -99 -44.5t-34 -117.5v-236h-172v56q0 57 -37.5 88.5t-95.5 31.5q-59 0 -95 -35t-36 -98z" />
    <glyph glyph-name="uni018A" unicode="&#x18a;" horiz-adv-x="1144" 
d="M336 1604h405q151 0 235.5 -93t84.5 -276v-866q0 -183 -84.5 -276t-235.5 -93h-331v1432h-72q-73 0 -116.5 -34t-43.5 -102q0 -54 35 -100l-160 -51q-43 76 -43 174q0 139 90 212t236 73zM598 1421v-1239h129q147 0 147 174v891q0 174 -147 174h-129z" />
    <glyph glyph-name="uni018E" unicode="&#x18e;" horiz-adv-x="684" 
d="M59 1604h531v-1604h-531v182h342v553h-241v183h241v503h-342v183z" />
    <glyph glyph-name="uni018F" unicode="&#x18f;" horiz-adv-x="827" 
d="M418 1632q141 0 233 -89t92 -240v-1002q0 -152 -92.5 -241t-234.5 -89q-63 0 -120 19.5t-105.5 60t-77.5 113t-29 168.5q0 246 209 461q102 105 264 221v291q0 69 -39 107t-102 38q-66 0 -106 -38t-40 -107v-95l-182 -47v140q0 151 94 240t236 89zM422 152q63 0 99 41
t36 114v512q-104 -80 -164 -149q-123 -141 -123 -322q0 -102 43 -149t109 -47z" />
    <glyph glyph-name="florin" unicode="&#x192;" horiz-adv-x="737" 
d="M106 1251h140v111q0 146 73 235t211 89q95 0 172 -41l-49 -160q-51 33 -102 33q-64 0 -97.5 -42.5t-33.5 -115.5v-109h207v-153h-207v-1151q0 -140 -70.5 -231t-210.5 -91q-101 0 -168 49l49 158q46 -35 93 -35q60 0 96.5 40.5t36.5 109.5v1151h-140v153z" />
    <glyph glyph-name="uni0198" unicode="&#x198;" horiz-adv-x="950" 
d="M94 1604h189v-598l252 540q65 140 243 140q98 0 172 -44l-49 -159q-49 35 -102 35q-81 0 -111 -64l-246 -506l324 -948h-197l-286 866v-866h-189v1604z" />
    <glyph glyph-name="uni0199" unicode="&#x199;" horiz-adv-x="790" 
d="M530 1251h187l-287 -512l311 -739h-188l-277 674v-674h-182v1360q0 145 76.5 235.5t216.5 90.5q98 0 172 -44l-49 -159q-49 35 -102 35q-65 0 -98.5 -44t-33.5 -118v-570z" />
    <glyph glyph-name="uni019D" unicode="&#x19d;" horiz-adv-x="829" 
d="M94 1604h205l272 -1106v1106h164v-1604h-168l-309 1180v-1233q0 -68 -14.5 -124t-45 -101.5t-84 -71t-124.5 -25.5q-101 0 -168 49l49 158q46 -35 92 -35q60 0 95.5 40.5t35.5 109.5v1657z" />
    <glyph glyph-name="uni01A0" unicode="&#x1a0;" horiz-adv-x="1042" 
d="M743 1311v-1018q0 -147 -94 -234.5t-235 -87.5q-142 0 -236 87.5t-94 234.5v1018q0 147 94 234t236 87q87 0 159.5 -35.5t116.5 -101.5q30 -10 58 -10q55 0 86.5 35.5t31.5 95.5v180h164v-127q0 -127 -64.5 -210t-189.5 -83q-27 0 -39 2q6 -34 6 -67zM270 1309v-1014
q0 -67 39.5 -104t104.5 -37t104 37t39 104v1014q0 67 -39 104t-104 37t-104.5 -37t-39.5 -104z" />
    <glyph glyph-name="uni01A1" unicode="&#x1a1;" horiz-adv-x="937" 
d="M707 965v-678q0 -137 -89.5 -220t-222.5 -83q-134 0 -222.5 82.5t-88.5 220.5v678q0 138 88.5 220.5t222.5 82.5q124 0 211 -74q12 -4 37 -4q55 0 87 35.5t32 95.5v180h164v-127q0 -124 -61 -206.5t-179 -86.5q21 -61 21 -116zM260 954v-657q0 -63 37.5 -98t97.5 -35
t96.5 35t36.5 98v657q0 63 -36.5 98t-96.5 35t-97.5 -35t-37.5 -98z" />
    <glyph glyph-name="uni01AF" unicode="&#x1af;" horiz-adv-x="1089" 
d="M90 1604h189v-1309q0 -67 39 -104t102 -37q66 0 105.5 36.5t39.5 104.5v1309h185v-56q21 -6 45 -6q55 0 86.5 35.5t31.5 95.5v180h164v-127q0 -127 -64.5 -209.5t-189.5 -82.5q-35 0 -73 10v-1151q0 -147 -94.5 -234.5t-237.5 -87.5q-142 0 -235 87.5t-93 234.5v1311z
" />
    <glyph glyph-name="uni01B0" unicode="&#x1b0;" horiz-adv-x="1032" 
d="M541 1251h182v-61q65 0 99 35t34 96v180h164v-127q0 -127 -64.5 -210t-189.5 -83q-29 0 -43 2v-1083h-125l-31 70q-92 -86 -217 -86q-112 0 -186 78t-74 225v964h182v-925q0 -162 129 -162q74 0 140 63v1024z" />
    <glyph glyph-name="uni01B3" unicode="&#x1b3;" horiz-adv-x="1032" 
d="M27 1604h190l205 -623l160 473q40 120 107 176t171 56q98 0 172 -44l-49 -159q-49 35 -102 35q-46 0 -77.5 -25.5t-55.5 -91.5l-232 -651v-750h-188v750z" />
    <glyph glyph-name="uni01B4" unicode="&#x1b4;" horiz-adv-x="1007" 
d="M541 -350v418q-85 -64 -191 -64q-112 0 -186 78t-74 225v944h182v-905q0 -162 129 -162q73 0 140 64v903q0 145 77.5 235.5t217.5 90.5q99 0 172 -43l-50 -160q-49 35 -102 35q-65 0 -99 -44.5t-34 -117.5v-1497h-182z" />
    <glyph glyph-name="uni01C4" unicode="&#x1c4;" horiz-adv-x="1566" 
d="M94 1604h332q151 0 235 -93t84 -276v-866q0 -183 -84 -276t-235 -93h-332v1604zM283 1421v-1239h129q147 0 147 174v891q0 174 -147 174h-129zM895 1604h614v-146l-430 -1276h430v-182h-622v174l428 1247h-420v183zM915 2025h154l145 -237l150 237h152l-201 -323h-197z
" />
    <glyph glyph-name="uni01C5" unicode="&#x1c5;" horiz-adv-x="1542" 
d="M94 1604h332q151 0 235 -93t84 -276v-866q0 -183 -84 -276t-235 -93h-332v1604zM283 1421v-1239h129q147 0 147 174v891q0 174 -147 174h-129zM893 1251h594v-127l-410 -970h410v-154h-602v150l409 948h-401v153zM899 1673h154l145 -237l150 237h151l-201 -323h-196z" />
    <glyph glyph-name="uni01C6" unicode="&#x1c6;" horiz-adv-x="1531" 
d="M543 1624l182 45v-1669h-125l-31 78q-100 -94 -227 -94q-110 0 -184 78.5t-74 224.5v678q0 146 74 224.5t184 78.5q107 0 201 -72v428zM266 926v-600q0 -162 127 -162q81 0 150 72v780q-68 71 -150 71q-127 0 -127 -161zM883 1251h594v-127l-410 -970h410v-154h-603v150
l410 948h-401v153zM889 1673h153l146 -237l149 237h152l-201 -323h-196z" />
    <glyph glyph-name="uni01DD" unicode="&#x1dd;" horiz-adv-x="768" 
d="M84 305q0 56 13 108t32.5 93t55.5 84t67 73t82.5 68.5t87.5 62.5t96 62v102q0 63 -36.5 98.5t-94.5 35.5q-60 0 -96.5 -35.5t-36.5 -98.5v-79l-166 -43v129q0 138 87 220.5t218 82.5q129 0 215 -82.5t86 -220.5v-678q0 -138 -86 -220.5t-217 -82.5q-58 0 -110.5 17.5
t-97.5 54t-72 100.5t-27 149zM518 295v387q-61 -41 -100 -72.5t-79 -76t-59.5 -97t-19.5 -114.5q0 -87 37 -128.5t96 -41.5t92 38t33 105z" />
    <glyph glyph-name="uni01E6" unicode="&#x1e6;" horiz-adv-x="804" 
d="M266 1311v-1018q0 -67 37 -103t100 -36q64 0 106 36.5t42 102.5v426h-160v170h324v-889h-117l-8 70q-89 -99 -221 -99q-125 0 -205 86.5t-80 231.5v1026q0 145 90.5 231t233.5 86q142 0 227.5 -85t85.5 -232v-53h-174v49q0 67 -37 103t-100 36q-66 0 -105 -36t-39 -103z
M109 2025h153l146 -237l149 237h152l-201 -323h-197z" />
    <glyph glyph-name="uni01E7" unicode="&#x1e7;" horiz-adv-x="802" 
d="M86 633v332q0 138 88.5 220.5t222.5 82.5q96 0 166 -43l228 12l-103 -158q21 -61 21 -114v-332q0 -137 -89.5 -220t-222.5 -83q-37 0 -71 6q-50 -41 -50 -98q0 -86 105 -86h358l-71 -156h-351q-124 0 -124 -96q0 -42 26.5 -69.5t75.5 -27.5h287l-72 -153h-250
q-120 0 -187 70t-67 171q0 76 39 136t113 90q-29 43 -29 102q0 97 90 158q-63 37 -98 103.5t-35 152.5zM258 963v-328q0 -66 38 -101.5t101 -35.5q62 0 101 36t39 101v328q0 67 -38.5 102t-101.5 35q-64 0 -101.5 -35t-37.5 -102zM100 1673h154l145 -237l150 237h151
l-200 -323h-197z" />
    <glyph glyph-name="uni01F0" unicode="&#x1f0;" horiz-adv-x="528" 
d="M-33 1673h154l145 -237l150 237h151l-200 -323h-197zM188 1251h177v-1304q0 -140 -70.5 -231t-210.5 -91q-101 0 -168 49l49 158q46 -35 92 -35q60 0 95.5 40.5t35.5 109.5v1304z" />
    <glyph glyph-name="uni01F1" unicode="&#x1f1;" horiz-adv-x="1566" 
d="M94 1604h332q151 0 235 -93t84 -276v-866q0 -183 -84 -276t-235 -93h-332v1604zM283 1421v-1239h129q147 0 147 174v891q0 174 -147 174h-129zM895 1604h614v-146l-430 -1276h430v-182h-622v174l428 1247h-420v183z" />
    <glyph glyph-name="uni01F2" unicode="&#x1f2;" horiz-adv-x="1542" 
d="M94 1604h332q151 0 235 -93t84 -276v-866q0 -183 -84 -276t-235 -93h-332v1604zM283 1421v-1239h129q147 0 147 174v891q0 174 -147 174h-129zM893 1251h594v-127l-410 -970h410v-154h-602v150l409 948h-401v153z" />
    <glyph glyph-name="uni01F3" unicode="&#x1f3;" horiz-adv-x="1531" 
d="M543 1624l182 45v-1669h-125l-31 78q-100 -94 -227 -94q-110 0 -184 78.5t-74 224.5v678q0 146 74 224.5t184 78.5q107 0 201 -72v428zM266 926v-600q0 -162 127 -162q81 0 150 72v780q-68 71 -150 71q-127 0 -127 -161zM883 1251h594v-127l-410 -970h410v-154h-603v150
l410 948h-401v153z" />
    <glyph glyph-name="uni01F4" unicode="&#x1f4;" horiz-adv-x="804" 
d="M266 1311v-1018q0 -67 37 -103t100 -36q64 0 106 36.5t42 102.5v426h-160v170h324v-889h-117l-8 70q-89 -99 -221 -99q-125 0 -205 86.5t-80 231.5v1026q0 145 90.5 231t233.5 86q142 0 227.5 -85t85.5 -232v-53h-174v49q0 67 -37 103t-100 36q-66 0 -105 -36t-39 -103z
M418 2025h198l-219 -323h-159z" />
    <glyph glyph-name="uni01F5" unicode="&#x1f5;" horiz-adv-x="802" 
d="M86 633v332q0 138 88.5 220.5t222.5 82.5q96 0 166 -43l228 12l-103 -158q21 -61 21 -114v-332q0 -137 -89.5 -220t-222.5 -83q-37 0 -71 6q-50 -41 -50 -98q0 -86 105 -86h358l-71 -156h-351q-124 0 -124 -96q0 -42 26.5 -69.5t75.5 -27.5h287l-72 -153h-250
q-120 0 -187 70t-67 171q0 76 39 136t113 90q-29 43 -29 102q0 97 90 158q-63 37 -98 103.5t-35 152.5zM258 963v-328q0 -66 38 -101.5t101 -35.5q62 0 101 36t39 101v328q0 67 -38.5 102t-101.5 35q-64 0 -101.5 -35t-37.5 -102zM408 1673h198l-219 -323h-160z" />
    <glyph glyph-name="uni01F8" unicode="&#x1f8;" horiz-adv-x="829" 
d="M94 1604h205l272 -1106v1106h164v-1604h-168l-309 1180v-1180h-164v1604zM209 2025h199l180 -323h-162z" />
    <glyph glyph-name="uni01F9" unicode="&#x1f9;" horiz-adv-x="825" 
d="M94 1251h125l29 -71q97 88 225 88q114 0 188 -78t74 -225v-965h-182v926q0 161 -131 161q-78 0 -146 -65v-1022h-182v1251zM201 1673h198l181 -323h-162z" />
    <glyph glyph-name="Scommaaccent" unicode="&#x218;" horiz-adv-x="770" 
d="M391 1632q143 0 226 -86t83 -227v-57h-174v43q0 70 -37 110.5t-102 40.5q-72 0 -109.5 -48.5t-37.5 -123.5q0 -101 84 -221q23 -31 88.5 -117t120.5 -162t88 -129q48 -76 69 -144.5t21 -154.5q0 -182 -81 -283.5t-241 -101.5q-154 0 -246 89.5t-92 224.5v86l174 -45v-39
q0 -60 41.5 -102t110.5 -42q75 0 114 49t39 140q0 116 -79 239q-26 40 -125 166t-140 191q-120 189 -120 358q0 159 88.5 252.5t236.5 93.5zM283 -41h180l-90 -389h-144z" />
    <glyph glyph-name="scommaaccent" unicode="&#x219;" horiz-adv-x="747" 
d="M383 1268q149 0 225 -77t76 -198v-82h-166v58q0 62 -35 94.5t-102 32.5q-69 0 -104 -32t-35 -89q0 -71 75 -152q32 -35 139 -132t146 -146q88 -109 88 -252t-78.5 -226t-236.5 -83q-150 0 -235 77t-85 213v142l166 -43v-84q0 -61 39.5 -96t114.5 -35q145 0 145 141
q0 43 -15 77t-56 81q-48 55 -149.5 146.5t-135.5 131.5q-98 117 -98 250q0 135 85 209t232 74zM281 -41h180l-90 -389h-144z" />
    <glyph glyph-name="uni021A" unicode="&#x21a;" horiz-adv-x="630" 
d="M41 1604h549v-183h-180v-1421h-189v1421h-180v183zM221 -41h180l-90 -389h-143z" />
    <glyph glyph-name="uni021B" unicode="&#x21b;" horiz-adv-x="630" 
d="M25 1251h135v219l176 74v-293h209v-153h-209v-791q0 -70 36 -110.5t97 -40.5q49 0 92 32l49 -155q-67 -49 -170 -49q-140 0 -210 90.5t-70 232.5v791h-135v153zM248 -41h180l-90 -389h-143z" />
    <glyph glyph-name="dotlessj" unicode="&#x237;" horiz-adv-x="397" 
d="M127 1251h176v-1304q0 -91 -28 -161.5t-92.5 -115.5t-159.5 -45q-101 0 -168 49l49 158q46 -35 92 -35q60 0 95.5 40.5t35.5 109.5v1304z" />
    <glyph glyph-name="uni0241" unicode="&#x241;" horiz-adv-x="731" 
d="M375 1645q139 0 221 -82t82 -250q0 -99 -29.5 -179t-99.5 -210q-64 -113 -88.5 -185t-24.5 -178v-561h-180v561q0 114 32 206t103 222q61 109 85 173t24 141q0 85 -33 123t-100 38q-66 0 -107 -35t-41 -98v-69h-166v79q0 140 88 222t234 82z" />
    <glyph glyph-name="uni0243" unicode="&#x243;" horiz-adv-x="923" 
d="M10 555h185v1049h325q148 0 233 -84.5t85 -233.5v-223q0 -97 -28.5 -152t-88.5 -80q67 -26 101 -84.5t34 -160.5v-256q0 -157 -85 -243.5t-234 -86.5h-342v418h-185v137zM379 1425v-518h131q78 0 110.5 33.5t32.5 116.5v207q0 161 -147 161h-127zM373 745v-190h239v-137
h-239v-240h149q148 0 148 164v246q0 86 -33 121.5t-115 35.5h-149z" />
    <glyph glyph-name="uni024C" unicode="&#x24c;" horiz-adv-x="903" 
d="M6 901h164v703h326q148 0 232.5 -84.5t84.5 -233.5v-223q0 -177 -113 -227q125 -52 125 -234v-602h-186v625q0 77 -31 108t-114 31h-140v-764h-184v764h-164v137zM354 1425v-524h127q82 0 115 33.5t33 112.5v217q0 78 -38 119.5t-110 41.5h-127z" />
    <glyph glyph-name="uni024D" unicode="&#x24d;" horiz-adv-x="720" 
d="M12 780h135v471h125l35 -104q80 121 211 121q89 0 152 -54l-52 -161q-56 34 -114 34q-103 0 -174 -106v-201h264v-137h-264v-643h-183v643h-135v137z" />
    <glyph glyph-name="uni0253" unicode="&#x253;" 
d="M94 0v1360q0 145 76.5 235.5t216.5 90.5q98 0 172 -44l-49 -159q-49 35 -102 35q-65 0 -98.5 -44t-33.5 -118v-160q91 72 201 72t184 -78.5t74 -224.5v-678q0 -146 -74 -224.5t-184 -78.5q-130 0 -227 94l-31 -78h-125zM426 1087q-82 0 -150 -71v-780q69 -72 150 -72
q127 0 127 162v600q0 161 -127 161z" />
    <glyph glyph-name="uni0257" unicode="&#x257;" horiz-adv-x="1009" 
d="M600 0l-31 78q-100 -94 -227 -94q-110 0 -184 78.5t-74 224.5v678q0 146 74 224.5t184 78.5q107 0 201 -72v164q0 145 77.5 235.5t217.5 90.5q98 0 172 -44l-49 -159q-49 35 -103 35q-65 0 -99 -44.5t-34 -117.5v-1356h-125zM266 926v-600q0 -162 127 -162q81 0 150 72
v780q-68 71 -150 71q-127 0 -127 -161z" />
    <glyph glyph-name="uni0272" unicode="&#x272;" horiz-adv-x="825" 
d="M94 1251h125l29 -71q97 88 225 88q114 0 188 -78t74 -225v-965h-182v926q0 161 -131 161q-78 0 -146 -65v-1075q0 -140 -73 -231t-213 -91q-101 0 -168 49l49 158q46 -35 92 -35q60 0 95.5 40.5t35.5 109.5v1304z" />
    <glyph glyph-name="circumflex" unicode="&#x2c6;" horiz-adv-x="751" 
d="M276 1673h197l203 -323h-154l-147 235l-148 -235h-151z" />
    <glyph glyph-name="caron" unicode="&#x2c7;" horiz-adv-x="751" 
d="M76 1673h153l146 -237l149 237h152l-201 -323h-196z" />
    <glyph glyph-name="breve" unicode="&#x2d8;" horiz-adv-x="651" 
d="M66 1673h135q11 -211 125 -211t125 211h133q-7 -136 -71 -226.5t-187 -90.5q-64 0 -114 26.5t-80 72t-46.5 100.5t-19.5 118z" />
    <glyph glyph-name="dotaccent" unicode="&#x2d9;" horiz-adv-x="327" 
d="M162 1651q53 0 80.5 -31t27.5 -80q0 -50 -27.5 -82.5t-80.5 -32.5q-50 0 -77.5 32.5t-27.5 82.5q0 48 27.5 79.5t77.5 31.5z" />
    <glyph glyph-name="ring" unicode="&#x2da;" horiz-adv-x="530" 
d="M236 1673h57q83 0 131.5 -51.5t48.5 -130.5t-49 -131.5t-131 -52.5h-57q-81 0 -130 52.5t-49 131.5q0 78 49 130t130 52zM293 1573h-57q-34 0 -56 -23t-22 -61q0 -36 22 -59t56 -23h57q35 0 57.5 22.5t22.5 59.5q0 38 -22 61t-58 23z" />
    <glyph glyph-name="ogonek" unicode="&#x2db;" horiz-adv-x="620" 
d="M264 -43l137 43h109l-174 -76q-67 -26 -92 -52t-25 -60q0 -41 30 -62.5t101 -21.5q104 0 154 36l59 -124q-28 -30 -91 -50t-150 -20q-75 0 -129.5 16t-82.5 44t-40.5 58.5t-12.5 65.5q0 72 51 121t156 82z" />
    <glyph glyph-name="tilde" unicode="&#x2dc;" horiz-adv-x="815" 
d="M131 1423l-74 66q76 156 213 156q44 0 84 -15.5t65.5 -34t60.5 -34t69 -15.5q87 0 135 101l74 -66q-77 -158 -207 -158q-41 0 -80.5 15.5t-66.5 34t-64 34t-74 15.5q-89 0 -135 -99z" />
    <glyph glyph-name="hungarumlaut" unicode="&#x2dd;" horiz-adv-x="839" 
d="M522 1673h199l-217 -323h-162zM205 1673h198l-219 -323h-159z" />
    <glyph glyph-name="gravecomb" unicode="&#x300;" horiz-adv-x="24" 
d="M-612 1673h198l181 -323h-162z" />
    <glyph glyph-name="acutecomb" unicode="&#x301;" horiz-adv-x="24" 
d="M-401 1673h198l-219 -323h-160z" />
    <glyph glyph-name="uni0302" unicode="&#x302;" horiz-adv-x="24" 
d="M-508 1673h197l202 -323h-153l-148 235l-147 -235h-152z" />
    <glyph glyph-name="tildecomb" unicode="&#x303;" horiz-adv-x="24" 
d="M-688 1423l-74 66q76 156 213 156q44 0 84 -15.5t65.5 -34t60.5 -34t69 -15.5q87 0 135 101l74 -66q-77 -158 -207 -158q-41 0 -80.5 15.5t-66.5 34t-64 34t-74 15.5q-89 0 -135 -99z" />
    <glyph glyph-name="uni0304" unicode="&#x304;" horiz-adv-x="24" 
d="M-741 1595h663v-137h-663v137z" />
    <glyph glyph-name="uni0306" unicode="&#x306;" horiz-adv-x="24" 
d="M-672 1673h135q11 -211 125 -211t125 211h133q-7 -136 -71 -226.5t-187 -90.5q-64 0 -114 26.5t-80 72t-46.5 100.5t-19.5 118z" />
    <glyph glyph-name="uni0307" unicode="&#x307;" horiz-adv-x="24" 
d="M-416 1651q53 0 81 -31.5t28 -79.5q0 -50 -28 -82.5t-81 -32.5q-50 0 -77 32.5t-27 82.5q0 48 27 79.5t77 31.5z" />
    <glyph glyph-name="uni0308" unicode="&#x308;" horiz-adv-x="24" 
d="M-242 1651q53 0 81 -31.5t28 -79.5q0 -50 -28 -82.5t-81 -32.5q-50 0 -77 32.5t-27 82.5q0 48 27 79.5t77 31.5zM-584 1651q53 0 81 -31.5t28 -79.5q0 -50 -28 -82.5t-81 -32.5q-50 0 -77 32.5t-27 82.5q0 48 27 79.5t77 31.5z" />
    <glyph glyph-name="hookabovecomb" unicode="&#x309;" horiz-adv-x="24" 
d="M-616 1518v32q0 160 198 160q95 0 143 -35t48 -98q0 -41 -17.5 -77t-41.5 -61t-48 -47.5t-39.5 -47t-13.5 -50.5h-82q-9 39 -1 63.5t27 50.5t39 46t35 48.5t15 58.5q0 53 -76 53q-43 0 -60.5 -15.5t-17.5 -48.5v-32h-108z" />
    <glyph glyph-name="uni030A" unicode="&#x30a;" horiz-adv-x="24" 
d="M-442 1673h57q83 0 131.5 -51.5t48.5 -130.5t-49 -131.5t-131 -52.5h-57q-81 0 -130 52.5t-49 131.5q0 78 49 130t130 52zM-385 1573h-57q-34 0 -56 -23t-22 -61q0 -36 22 -59t56 -23h57q35 0 57.5 22.5t22.5 59.5q0 38 -22 61t-58 23z" />
    <glyph glyph-name="uni030B" unicode="&#x30b;" horiz-adv-x="24" 
d="M-240 1673h199l-217 -323h-162zM-557 1673h199l-220 -323h-159z" />
    <glyph glyph-name="uni030C" unicode="&#x30c;" horiz-adv-x="24" 
d="M-719 1673h154l145 -237l150 237h151l-200 -323h-197z" />
    <glyph glyph-name="uni0313" unicode="&#x313;" horiz-adv-x="24" 
d="M-362 1909h65l-18 -414q-2 -52 -28 -82.5t-77 -30.5q-53 0 -80.5 32t-27.5 79q0 35 22 86z" />
    <glyph glyph-name="uni031B" unicode="&#x31b;" horiz-adv-x="198" 
d="M8 1501h164v-127q0 -127 -64.5 -210t-189.5 -83q-90 0 -156 47l45 86q34 -24 80 -24q57 0 89 35.5t32 95.5v180z" />
    <glyph glyph-name="dotbelowcomb" unicode="&#x323;" horiz-adv-x="380" 
d="M-418 -117q53 0 81 -31t28 -79q0 -50 -28 -82.5t-81 -32.5q-50 0 -77 32.5t-27 82.5q0 48 27 79t77 31z" />
    <glyph glyph-name="uni0326" unicode="&#x326;" horiz-adv-x="24" 
d="M-500 -41h181l-91 -389h-143z" />
    <glyph glyph-name="uni0328" unicode="&#x328;" horiz-adv-x="24" 
d="M-553 -43l137 43h109l-174 -76q-67 -26 -92 -52t-25 -60q0 -41 30 -62.5t101 -21.5q104 0 154 36l59 -124q-28 -30 -91.5 -50t-150.5 -20q-75 0 -129.5 16t-82.5 44t-40 58.5t-12 65.5q0 72 51 121t156 82z" />
    <glyph glyph-name="uni0337" unicode="&#x337;" horiz-adv-x="24" 
d="M-182 1726h108l-610 -1849h-109z" />
    <glyph glyph-name="uni0338" unicode="&#x338;" horiz-adv-x="24" 
d="M-236 1374h101l-471 -1497h-101z" />
    <glyph glyph-name="tonos" unicode="&#x384;" horiz-adv-x="299" 
d="M88 1776h188l-102 -426h-149z" />
    <glyph glyph-name="dieresistonos" unicode="&#x385;" horiz-adv-x="770" 
d="M334 1776h188l-102 -426h-150zM649 1651q53 0 81 -31.5t28 -79.5q0 -50 -28 -82.5t-81 -32.5q-50 0 -77 32.5t-27 82.5q0 48 27 79.5t77 31.5zM117 1651q53 0 80.5 -31t27.5 -80q0 -50 -27.5 -82.5t-80.5 -32.5q-50 0 -77.5 32.5t-27.5 82.5q0 48 27.5 79.5t77.5 31.5z
" />
    <glyph glyph-name="Alphatonos" unicode="&#x386;" horiz-adv-x="890" 
d="M389 1604h186l279 -1604h-182l-37 231h-299l-35 -231h-182zM483 1192l-123 -803h250zM100 1776h189l-103 -426h-149z" />
    <glyph glyph-name="anoteleia" unicode="&#x387;" horiz-adv-x="327" 
d="M162 905q53 0 80.5 -31t27.5 -81q0 -49 -27.5 -81t-80.5 -32q-50 0 -77.5 32.5t-27.5 80.5q0 49 27 80.5t78 31.5z" />
    <glyph glyph-name="Epsilontonos" unicode="&#x388;" horiz-adv-x="940" 
d="M350 1604h531v-183h-342v-503h241v-183h-241v-553h342v-182h-531v1604zM100 1776h189l-103 -426h-149z" />
    <glyph glyph-name="Etatonos" unicode="&#x389;" horiz-adv-x="1105" 
d="M350 1604h189v-699h284v699h189v-1604h-189v725h-284v-725h-189v1604zM100 1776h189l-103 -426h-149z" />
    <glyph glyph-name="Iotatonos" unicode="&#x38a;" horiz-adv-x="632" 
d="M350 1604h189v-1604h-189v1604zM100 1776h189l-103 -426h-149z" />
    <glyph glyph-name="Omicrontonos" unicode="&#x38c;" horiz-adv-x="1017" 
d="M934 1311v-1018q0 -147 -94.5 -234.5t-235.5 -87.5q-142 0 -236 87.5t-94 234.5v1018q0 147 94 234t236 87q141 0 235.5 -87t94.5 -234zM461 1309v-1014q0 -67 39 -104t104 -37t104.5 37t39.5 104v1014q0 67 -39.5 104t-104.5 37t-104 -37t-39 -104zM100 1776h189
l-103 -426h-149z" />
    <glyph glyph-name="Upsilontonos" unicode="&#x38e;" horiz-adv-x="1105" 
d="M289 1604h190l207 -623l211 623h182l-301 -854v-750h-188v750zM100 1776h189l-103 -426h-149z" />
    <glyph glyph-name="Omegatonos" unicode="&#x38f;" horiz-adv-x="1001" 
d="M434 1309v-723q0 -58 20 -90t64 -47v-449h-264v182h131v148q-133 87 -133 270v711q0 147 94 234t236 87t235.5 -87t93.5 -234v-711q0 -89 -35 -158.5t-98 -111.5v-148h133v-182h-266v449q43 15 63.5 47.5t20.5 89.5v723q0 66 -42 103.5t-105 37.5t-105.5 -37.5
t-42.5 -103.5zM100 1776h189l-103 -426h-149z" />
    <glyph glyph-name="iotadieresistonos" unicode="&#x390;" horiz-adv-x="694" 
d="M215 1251h176v-970q0 -57 28 -91t77 -34q44 0 84 32l45 -155q-61 -49 -158 -49q-66 0 -116 23.5t-79 65.5t-43 94t-14 114v970zM293 1776h188l-102 -426h-150zM610 1651q53 0 81 -31.5t28 -79.5q0 -50 -28 -82.5t-81 -32.5q-50 0 -77 32.5t-27 82.5q0 48 27 79.5t77 31.5
zM72 1651q53 0 80.5 -31t27.5 -80q0 -50 -27.5 -82.5t-80.5 -32.5q-50 0 -77.5 32.5t-27.5 82.5q0 48 27.5 79.5t77.5 31.5z" />
    <glyph glyph-name="Alpha" unicode="&#x391;" 
d="M307 1604h187l278 -1604h-182l-37 231h-299l-35 -231h-182zM401 1192l-122 -803h249z" />
    <glyph glyph-name="Beta" unicode="&#x392;" horiz-adv-x="823" 
d="M94 1604h326q148 0 232.5 -84.5t84.5 -233.5v-223q0 -97 -28.5 -152t-87.5 -80q67 -26 101 -84.5t34 -160.5v-256q0 -157 -85.5 -243.5t-234.5 -86.5h-342v1604zM279 745v-567h143q147 0 147 164v246q0 87 -33 122t-114 35h-143zM279 1425v-518h131q78 0 110.5 33.5
t32.5 116.5v207q0 161 -147 161h-127z" />
    <glyph glyph-name="Gamma" unicode="&#x393;" horiz-adv-x="624" 
d="M94 1604h490v-183h-301v-1421h-189v1604z" />
    <glyph glyph-name="Delta" unicode="&#x394;" 
d="M307 1604h187l278 -1604h-735zM401 1194l-155 -1012h315z" />
    <glyph glyph-name="Epsilon" unicode="&#x395;" horiz-adv-x="684" 
d="M94 1604h531v-183h-342v-503h241v-183h-241v-553h342v-182h-531v1604z" />
    <glyph glyph-name="Zeta" unicode="&#x396;" horiz-adv-x="737" 
d="M66 1604h614v-146l-430 -1276h430v-182h-623v174l428 1247h-419v183z" />
    <glyph glyph-name="Eta" unicode="&#x397;" horiz-adv-x="849" 
d="M94 1604h189v-699h284v699h189v-1604h-189v725h-284v-725h-189v1604z" />
    <glyph glyph-name="Theta" unicode="&#x398;" horiz-adv-x="827" 
d="M301 918h225v-183h-225v183zM743 1311v-1018q0 -147 -94 -234.5t-235 -87.5q-142 0 -236 87.5t-94 234.5v1018q0 147 94 234t236 87q141 0 235 -87t94 -234zM270 1309v-1014q0 -67 39.5 -104t104.5 -37t104 37t39 104v1014q0 67 -39 104t-104 37t-104.5 -37t-39.5 -104z
" />
    <glyph glyph-name="Iota" unicode="&#x399;" horiz-adv-x="376" 
d="M94 1604h189v-1604h-189v1604z" />
    <glyph glyph-name="Kappa" unicode="&#x39a;" horiz-adv-x="792" 
d="M549 1604h192l-299 -656l324 -948h-197l-286 866v-866h-189v1604h189v-596z" />
    <glyph glyph-name="Lambda" unicode="&#x39b;" 
d="M772 0h-184l-182 1192l-187 -1192h-182l276 1604h187z" />
    <glyph glyph-name="Mu" unicode="&#x39c;" horiz-adv-x="1095" 
d="M94 1604h205l250 -1272l264 1272h188v-1604h-167v1034l-197 -1034h-174l-201 1049v-1049h-168v1604z" />
    <glyph glyph-name="Nu" unicode="&#x39d;" horiz-adv-x="829" 
d="M94 1604h205l272 -1106v1106h164v-1604h-168l-309 1180v-1180h-164v1604z" />
    <glyph glyph-name="Xi" unicode="&#x39e;" horiz-adv-x="722" 
d="M59 1604h605v-183h-605v183zM59 182h605v-182h-605v182zM160 918h403v-183h-403v183z" />
    <glyph glyph-name="Omicron" unicode="&#x39f;" horiz-adv-x="827" 
d="M743 1311v-1018q0 -147 -94 -234.5t-235 -87.5q-142 0 -236 87.5t-94 234.5v1018q0 147 94 234t236 87q141 0 235 -87t94 -234zM270 1309v-1014q0 -67 39.5 -104t104.5 -37t104 37t39 104v1014q0 67 -39 104t-104 37t-104.5 -37t-39.5 -104z" />
    <glyph glyph-name="Pi" unicode="&#x3a0;" horiz-adv-x="849" 
d="M94 1604h662v-1604h-189v1421h-284v-1421h-189v1604z" />
    <glyph glyph-name="Rho" unicode="&#x3a1;" 
d="M94 1604h332q151 0 235 -93t84 -276v-234q0 -183 -84 -275.5t-235 -92.5h-143v-633h-189v1604zM283 1421v-606h129q147 0 147 174v258q0 174 -147 174h-129z" />
    <glyph glyph-name="Sigma" unicode="&#x3a3;" horiz-adv-x="690" 
d="M33 1604h614v-183h-409l219 -596l-246 -643h440v-182h-618v147l246 656l-246 653v148z" />
    <glyph glyph-name="Tau" unicode="&#x3a4;" horiz-adv-x="630" 
d="M41 1604h549v-183h-180v-1421h-189v1421h-180v183z" />
    <glyph glyph-name="Upsilon" unicode="&#x3a5;" horiz-adv-x="843" 
d="M27 1604h190l207 -623l211 623h182l-301 -854v-750h-188v750z" />
    <glyph glyph-name="Phi" unicode="&#x3a6;" horiz-adv-x="1155" 
d="M483 1604h189v-179q118 -7 197.5 -31t123 -67t61 -95.5t17.5 -125.5v-608q0 -73 -17.5 -125.5t-61 -96t-123 -67.5t-197.5 -31v-178h-189v178q-118 7 -197.5 31t-123 67.5t-61 96t-17.5 125.5v608q0 73 17.5 125.5t61 95.5t123 67t197.5 31v179zM270 1104v-604
q0 -44 15 -70.5t63 -45.5t135 -24v883q-127 -8 -170 -40.5t-43 -98.5zM885 1104q0 65 -43.5 98t-169.5 41v-883q125 7 169 40.5t44 99.5v604z" />
    <glyph glyph-name="Chi" unicode="&#x3a7;" horiz-adv-x="835" 
d="M602 1604h182l-274 -770l299 -834h-199l-204 586l-201 -586h-178l284 852l-262 752h191l178 -508z" />
    <glyph glyph-name="Psi" unicode="&#x3a8;" horiz-adv-x="1220" 
d="M520 1604h189v-875q237 17 237 139v736h184v-738q0 -136 -109.5 -219t-311.5 -98v-549h-189v547q-205 15 -317.5 98.5t-112.5 220.5v738h189v-736q0 -121 241 -139v875z" />
    <glyph glyph-name="Omega" unicode="&#x3a9;" horiz-adv-x="839" 
d="M272 1309v-723q0 -58 20 -90t64 -47v-449h-264v182h131v148q-133 87 -133 270v711q0 147 94 234t236 87t236 -87t94 -234v-711q0 -89 -35.5 -158.5t-98.5 -111.5v-148h134v-182h-267v449q43 15 63.5 47.5t20.5 89.5v723q0 66 -42 103.5t-105 37.5t-105.5 -37.5
t-42.5 -103.5z" />
    <glyph glyph-name="Iotadieresis" unicode="&#x3aa;" horiz-adv-x="387" 
d="M100 1604h189v-1604h-189v1604zM362 2003q53 0 81 -31.5t28 -79.5q0 -50 -28 -82t-81 -32q-50 0 -77 32t-27 82q0 48 27 79.5t77 31.5zM20 2003q53 0 81 -31.5t28 -79.5q0 -50 -28 -82t-81 -32q-50 0 -77 32t-27 82q0 48 27 79.5t77 31.5z" />
    <glyph glyph-name="Upsilondieresis" unicode="&#x3ab;" horiz-adv-x="843" 
d="M27 1604h190l207 -623l211 623h182l-301 -854v-750h-188v750zM590 2003q53 0 80.5 -31t27.5 -80q0 -50 -27.5 -82t-80.5 -32q-50 0 -77.5 32t-27.5 82q0 48 27.5 79.5t77.5 31.5zM248 2003q53 0 80.5 -31t27.5 -80q0 -50 -27.5 -82t-80.5 -32q-50 0 -77.5 32t-27.5 82
q0 48 27.5 79.5t77.5 31.5z" />
    <glyph glyph-name="alphatonos" unicode="&#x3ac;" horiz-adv-x="995" 
d="M786 -16q-140 0 -200 114q-105 -114 -244 -114q-122 0 -190 79.5t-68 223.5v678q0 144 86 223.5t238 79.5q139 0 203.5 -73t64.5 -224v-322q57 220 115 602h167q-73 -377 -134.5 -614t-139.5 -389q23 -92 125 -92q64 0 96 37l49 -158q-66 -51 -168 -51zM260 954v-657
q0 -66 29.5 -99.5t81.5 -33.5q94 0 172 129v655q0 73 -34.5 106t-105.5 33q-74 0 -108.5 -32.5t-34.5 -100.5zM406 1776h188l-102 -426h-150z" />
    <glyph glyph-name="epsilontonos" unicode="&#x3ad;" horiz-adv-x="770" 
d="M336 1776h188l-102 -426h-150zM399 1268q142 0 225 -65.5t83 -180.5v-111h-166v66q0 54 -36 82t-104 28q-139 0 -139 -122v-131q0 -64 31.5 -88.5t109.5 -24.5h236v-150h-248q-79 0 -112 -27.5t-33 -92.5v-183q0 -51 38.5 -77.5t106.5 -26.5t109 27t41 79v103l166 43
v-187q0 -114 -88.5 -179.5t-229.5 -65.5t-233.5 65.5t-92.5 177.5v230q0 80 33 125.5t97 66.5q-58 19 -85.5 62t-27.5 118v172q0 121 83 194t236 73z" />
    <glyph glyph-name="etatonos" unicode="&#x3ae;" horiz-adv-x="876" 
d="M41 1251h82q125 0 174 -73q96 90 227 90q114 0 188 -78t74 -225v-1315h-182v1276q0 161 -131 161q-77 0 -145 -65v-1022h-183v1004q0 49 -18.5 71.5t-58.5 22.5h-27v153zM391 1776h189l-103 -426h-149z" />
    <glyph glyph-name="iotatonos" unicode="&#x3af;" horiz-adv-x="524" 
d="M94 1251h176v-970q0 -57 28 -91t77 -34q44 0 84 32l45 -155q-61 -49 -158 -49q-66 0 -116 23.5t-79 65.5t-43 94t-14 114v970zM178 1776h189l-103 -426h-149z" />
    <glyph glyph-name="upsilondieresistonos" unicode="&#x3b0;" horiz-adv-x="876" 
d="M381 1776h188l-102 -426h-150zM41 1251h70q198 0 198 -202v-752q0 -64 37.5 -98.5t95.5 -34.5q40 0 70 19.5t56 67.5t39.5 142t13.5 232q0 293 -50 626h181q47 -331 47 -594q0 -187 -24.5 -319.5t-72 -209t-109.5 -110.5t-144 -34q-137 0 -226.5 82.5t-89.5 220.5v717
q0 94 -78 94h-14v153zM698 1651q53 0 81 -31.5t28 -79.5q0 -50 -28 -82.5t-81 -32.5q-50 0 -77 32.5t-27 82.5q0 48 27 79.5t77 31.5zM160 1651q53 0 80.5 -31t27.5 -80q0 -50 -27.5 -82.5t-80.5 -32.5q-50 0 -77.5 32.5t-27.5 82.5q0 48 27.5 79.5t77.5 31.5z" />
    <glyph glyph-name="alpha" unicode="&#x3b1;" horiz-adv-x="995" 
d="M786 -16q-140 0 -200 114q-105 -114 -244 -114q-122 0 -190 79.5t-68 223.5v678q0 144 86 223.5t238 79.5q139 0 203.5 -73t64.5 -224v-322q57 220 115 602h167q-73 -377 -134.5 -614t-139.5 -389q23 -92 125 -92q64 0 96 37l49 -158q-66 -51 -168 -51zM260 954v-657
q0 -66 29.5 -99.5t81.5 -33.5q94 0 172 129v655q0 73 -34.5 106t-105.5 33q-74 0 -108.5 -32.5t-34.5 -100.5z" />
    <glyph glyph-name="beta" unicode="&#x3b2;" horiz-adv-x="913" 
d="M528 -16q-167 0 -262 118v-452h-172v1696q0 158 77 249t239 91q66 0 117 -16.5t83.5 -44t53.5 -67.5t29.5 -84t8.5 -96v-288q0 -142 -43 -203q88 -24 131.5 -87t43.5 -182v-299q0 -148 -75.5 -241.5t-230.5 -93.5zM266 1358v-1073q103 -129 234 -129q73 0 114 43.5
t41 119.5v291q0 102 -43.5 138t-158.5 36h-60v146h19q75 0 99 31.5t24 113.5v291q0 64 -33 101.5t-99 37.5q-68 0 -102.5 -38.5t-34.5 -108.5z" />
    <glyph glyph-name="gamma" unicode="&#x3b3;" horiz-adv-x="774" 
d="M39 1251h176q125 -487 172 -964q178 541 178 964h172q-1 -152 -25 -313t-71 -327.5t-92.5 -300.5t-112.5 -310v-350h-182v350q0 180 -65.5 558.5t-149.5 692.5z" />
    <glyph glyph-name="delta" unicode="&#x3b4;" horiz-adv-x="790" 
d="M84 768q0 244 129 346q-125 106 -125 268q0 152 84 228t229 76q157 0 231.5 -81t74.5 -206v-70h-166v43q0 65 -35 103t-107 38q-135 0 -135 -133q0 -89 76 -155q23 -21 124 -93t148 -126q95 -105 95 -261v-458q0 -137 -89.5 -220t-222.5 -83q-134 0 -222.5 82.5
t-88.5 220.5v481zM528 752q0 45 -15 84.5t-45 74t-59.5 59.5t-74.5 58q-74 -77 -74 -260v-471q0 -63 37.5 -98t97.5 -35t96.5 35t36.5 98v455z" />
    <glyph glyph-name="epsilon" unicode="&#x3b5;" horiz-adv-x="770" 
d="M399 1268q142 0 225 -65.5t83 -180.5v-111h-166v66q0 54 -36 82t-104 28q-139 0 -139 -122v-131q0 -64 31.5 -88.5t109.5 -24.5h236v-150h-248q-79 0 -112 -27.5t-33 -92.5v-183q0 -51 38.5 -77.5t106.5 -26.5t109 27t41 79v103l166 43v-187q0 -114 -88.5 -179.5
t-229.5 -65.5t-233.5 65.5t-92.5 177.5v230q0 80 33 125.5t97 66.5q-58 19 -85.5 62t-27.5 118v172q0 121 83 194t236 73z" />
    <glyph glyph-name="zeta" unicode="&#x3b6;" horiz-adv-x="757" 
d="M86 1669h594v-127q-206 -484 -287 -685.5t-107 -294.5t-26 -175q0 -33 1.5 -57.5t8 -45.5t11 -34t20.5 -26.5t25.5 -20t37.5 -17t44 -15.5t57 -17q55 -17 91.5 -35.5t70 -49t49.5 -76.5t16 -110q0 -65 -17.5 -115.5t-56.5 -117.5h-178q78 115 78 225q0 37 -8 60.5
t-29.5 39t-42 23.5t-63.5 20t-66 18.5t-55.5 17.5t-48.5 21t-37.5 25t-32 32t-22.5 40.5t-17 52.5t-8.5 65.5t-3.5 82.5q0 105 28 212t105 300t268 631h-399v153z" />
    <glyph glyph-name="eta" unicode="&#x3b7;" horiz-adv-x="876" 
d="M41 1251h82q125 0 174 -73q96 90 227 90q114 0 188 -78t74 -225v-1315h-182v1276q0 161 -131 161q-77 0 -145 -65v-1022h-183v1004q0 49 -18.5 71.5t-58.5 22.5h-27v153z" />
    <glyph glyph-name="theta" unicode="&#x3b8;" horiz-adv-x="790" 
d="M395 1686q133 0 222.5 -83.5t89.5 -220.5v-1095q0 -137 -89.5 -220t-222.5 -83q-134 0 -222.5 82.5t-88.5 220.5v1095q0 138 88.5 221t222.5 83zM395 164q60 0 96.5 35t36.5 98v469h-268v-469q0 -63 37.5 -98t97.5 -35zM395 1505q-60 0 -97.5 -35t-37.5 -98v-452h268v452
q0 63 -36.5 98t-96.5 35z" />
    <glyph glyph-name="iota" unicode="&#x3b9;" horiz-adv-x="524" 
d="M94 1251h176v-970q0 -57 28 -91t77 -34q44 0 84 32l45 -155q-61 -49 -158 -49q-66 0 -116 23.5t-79 65.5t-43 94t-14 114v970z" />
    <glyph glyph-name="kappa" unicode="&#x3ba;" horiz-adv-x="768" 
d="M530 1251h187l-287 -512l311 -739h-188l-277 674v-674h-182v1251h182v-465z" />
    <glyph glyph-name="lambda" unicode="&#x3bb;" horiz-adv-x="794" 
d="M33 1669h55q152 0 233 -67t119 -228l316 -1374h-174l-191 819l-176 -819h-176l272 1171l-41 179q-25 101 -66.5 133.5t-127.5 32.5h-43v153z" />
    <glyph glyph-name="mu" unicode="&#x3bc;" horiz-adv-x="929" 
d="M545 1251h180v-979q0 -116 80 -116q37 0 72 32l30 -155q-55 -49 -141 -49q-123 0 -182 102q-95 -102 -234 -102q-52 0 -102 18l26 -352h-184v1601h182v-925q0 -162 129 -162q77 0 144 67v21v999z" />
    <glyph glyph-name="nu" unicode="&#x3bd;" horiz-adv-x="774" 
d="M39 1251h176q125 -487 172 -964q178 541 178 964h172q-1 -152 -25.5 -312.5t-72 -327.5t-93.5 -301t-114 -310h-176q0 179 -66 557t-151 694z" />
    <glyph glyph-name="xi" unicode="&#x3be;" horiz-adv-x="757" 
d="M86 1669h594v-125q-145 -166 -231.5 -272.5t-123 -167t-45 -87t-8.5 -59.5q0 -74 31.5 -105.5t124.5 -31.5h225v-149h-225q-93 0 -130.5 -63t-37.5 -212q0 -35 1 -60.5t7.5 -47.5t10.5 -35.5t19.5 -27t25.5 -21t37 -18t45 -16t59 -17.5q55 -17 91.5 -35.5t70 -49
t49.5 -76.5t16 -110q0 -65 -17.5 -115.5t-56.5 -117.5h-178q78 115 78 225q0 37 -8 60.5t-29.5 39t-42 23.5t-63.5 20q-94 25 -135 41t-84.5 55.5t-57.5 104.5t-14 174q0 150 37 234t119 118q-75 18 -105.5 61t-30.5 120q0 63 22 118.5t100 165t243 306.5h-383v153z" />
    <glyph glyph-name="omicron" unicode="&#x3bf;" horiz-adv-x="790" 
d="M707 965v-678q0 -137 -89.5 -220t-222.5 -83q-134 0 -222.5 82.5t-88.5 220.5v678q0 138 88.5 220.5t222.5 82.5q133 0 222.5 -83t89.5 -220zM260 954v-657q0 -63 37.5 -98t97.5 -35t96.5 35t36.5 98v657q0 63 -36.5 98t-96.5 35t-97.5 -35t-37.5 -98z" />
    <glyph glyph-name="pi" unicode="&#x3c0;" horiz-adv-x="1069" 
d="M41 1251h938v-153h-170v-817q0 -57 27.5 -91t74.5 -34q44 0 84 32l47 -155q-64 -49 -159 -49q-127 0 -189.5 83.5t-62.5 213.5v817h-273v-1098h-182v1098h-135v153z" />
    <glyph glyph-name="rho" unicode="&#x3c1;" horiz-adv-x="806" 
d="M481 -16q-125 0 -211 73v-407h-176v1315q0 138 89 220.5t223 82.5q133 0 225 -83t92 -220v-678q0 -77 -23.5 -138t-61 -95.5t-78 -52t-79.5 -17.5zM270 954v-714q70 -76 144 -76q58 0 94.5 34t36.5 99v657q0 63 -39 98t-100 35q-60 0 -98 -35t-38 -98z" />
    <glyph glyph-name="sigma1" unicode="&#x3c2;" horiz-adv-x="757" 
d="M260 954v-563q0 -34 1.5 -58.5t8 -46t11.5 -35t20.5 -27t26 -20.5t37 -17t44 -15.5t56.5 -17.5q55 -17 91.5 -35.5t70 -49t49.5 -76.5t16 -110q0 -65 -17.5 -115.5t-56.5 -117.5h-178q78 115 78 225q0 29 -7 50.5t-16 35t-30.5 24.5t-38.5 17t-51 16q-36 9 -56.5 15
t-49.5 15.5t-45 17.5t-37 21t-32.5 27t-25 33.5t-20.5 43t-13.5 53t-9 65.5t-2.5 80v576q0 138 86 220.5t215 82.5q131 0 218 -82.5t87 -220.5v-54h-166v43q0 63 -36.5 98t-96.5 35q-59 0 -95 -35t-36 -98z" />
    <glyph glyph-name="sigma" unicode="&#x3c3;" horiz-adv-x="870" 
d="M395 1251h434v-153h-198q76 -101 76 -269v-542q0 -137 -89.5 -220t-222.5 -83q-134 0 -222.5 82.5t-88.5 220.5v678q0 136 87.5 211t223.5 75zM528 829q0 186 -47 269h-86q-61 0 -98 -33.5t-37 -95.5v-672q0 -63 37.5 -98t97.5 -35t96.5 35t36.5 98v532z" />
    <glyph glyph-name="tau" unicode="&#x3c4;" horiz-adv-x="735" 
d="M41 1251h655v-153h-270v-817q0 -58 27.5 -91.5t76.5 -33.5q44 0 82 32l47 -155q-61 -49 -159 -49q-127 0 -188.5 83t-61.5 214v817h-209v153z" />
    <glyph glyph-name="upsilon" unicode="&#x3c5;" horiz-adv-x="876" 
d="M41 1251h70q198 0 198 -202v-752q0 -64 37.5 -98.5t95.5 -34.5q40 0 70 19.5t56 67.5t39.5 142t13.5 232q0 293 -50 626h181q47 -331 47 -594q0 -187 -24.5 -319.5t-72 -209t-109.5 -110.5t-144 -34q-137 0 -226.5 82.5t-89.5 220.5v717q0 94 -78 94h-14v153z" />
    <glyph glyph-name="phi" unicode="&#x3c6;" horiz-adv-x="1138" 
d="M479 1624l180 45v-403q120 -6 199.5 -29t122 -64t58.5 -90t16 -118v-678q0 -70 -16 -119t-58.5 -90t-122 -63.5t-199.5 -28.5v-336h-180v336q-120 6 -199.5 28.5t-121.5 63.5t-58 90t-16 119v678q0 69 16 118t58 90t121.5 64t199.5 29v358zM260 954v-657q0 -41 15.5 -66
t65 -42.5t138.5 -22.5v919q-89 -5 -138.5 -23t-65 -43t-15.5 -65zM877 954q0 41 -15.5 65.5t-64.5 42.5t-138 23v-919q89 5 138 22.5t64.5 42.5t15.5 66v657z" />
    <glyph glyph-name="chi" unicode="&#x3c7;" horiz-adv-x="854" 
d="M631 1251h186l-330 -780l117 -442q39 -139 74 -182.5t104 -43.5h37v-153h-49q-47 0 -81 5t-61 20.5t-45 34t-35.5 54t-29.5 72.5t-29 98l-88 334l-260 -618h-182l373 887l-88 335q-38 139 -72.5 182.5t-103.5 43.5h-37v153h49q56 0 94 -9.5t65 -26.5t48.5 -54.5
t36.5 -78.5t36 -115l58 -224z" />
    <glyph glyph-name="psi" unicode="&#x3c8;" horiz-adv-x="1187" 
d="M502 1516l180 45v-1387q50 13 91 41.5t77.5 79.5t57 137t20.5 199q0 293 -49 620h180q47 -327 47 -575q0 -139 -23.5 -251.5t-62.5 -188t-94.5 -128.5t-115 -80.5t-128.5 -37.5v-340h-180v342q-87 15 -159 57.5t-132.5 120t-94.5 204t-34 292.5q0 254 47 585h180
q-51 -320 -51 -618q0 -392 244 -457v1340z" />
    <glyph glyph-name="omega" unicode="&#x3c9;" horiz-adv-x="1169" 
d="M125 1251h180q-49 -304 -49 -669q0 -170 16 -263.5t42.5 -124t72.5 -30.5q49 0 72.5 42.5t35 169.5t11.5 388h158q0 -198 5 -313t20 -180.5t35.5 -86t57.5 -20.5q46 0 72.5 30.5t42.5 124t16 263.5q0 365 -49 669h180q48 -307 48 -620q0 -240 -34.5 -383.5t-100 -203.5
t-171.5 -60q-77 0 -125.5 31t-76.5 98q-54 -129 -203 -129q-105 0 -170 60t-99 203.5t-34 383.5q0 319 47 620z" />
    <glyph glyph-name="iotadieresis" unicode="&#x3ca;" horiz-adv-x="589" 
d="M160 1251h176v-970q0 -58 27.5 -91.5t76.5 -33.5q44 0 84 32l45 -155q-61 -49 -157 -49q-66 0 -116 23.5t-79 65.5t-43 94t-14 114v970zM418 1651q53 0 80.5 -31t27.5 -80q0 -50 -27.5 -82.5t-80.5 -32.5q-50 0 -77.5 32.5t-27.5 82.5q0 48 27.5 79.5t77.5 31.5zM76 1651
q53 0 80.5 -31t27.5 -80q0 -50 -27.5 -82.5t-80.5 -32.5q-50 0 -77.5 32.5t-27.5 82.5q0 48 27.5 79.5t77.5 31.5z" />
    <glyph glyph-name="upsilondieresis" unicode="&#x3cb;" horiz-adv-x="876" 
d="M41 1251h70q198 0 198 -202v-752q0 -64 37.5 -98.5t95.5 -34.5q40 0 70 19.5t56 67.5t39.5 142t13.5 232q0 293 -50 626h181q47 -331 47 -594q0 -187 -24.5 -319.5t-72 -209t-109.5 -110.5t-144 -34q-137 0 -226.5 82.5t-89.5 220.5v717q0 94 -78 94h-14v153zM580 1651
q53 0 80.5 -31t27.5 -80q0 -50 -27.5 -82.5t-80.5 -32.5q-50 0 -77.5 32.5t-27.5 82.5q0 48 27.5 79.5t77.5 31.5zM238 1651q53 0 80.5 -31t27.5 -80q0 -50 -27.5 -82.5t-80.5 -32.5q-50 0 -77.5 32.5t-27.5 82.5q0 48 27.5 79.5t77.5 31.5z" />
    <glyph glyph-name="omicrontonos" unicode="&#x3cc;" horiz-adv-x="790" 
d="M707 965v-678q0 -137 -89.5 -220t-222.5 -83q-134 0 -222.5 82.5t-88.5 220.5v678q0 138 88.5 220.5t222.5 82.5q133 0 222.5 -83t89.5 -220zM260 954v-657q0 -63 37.5 -98t97.5 -35t96.5 35t36.5 98v657q0 63 -36.5 98t-96.5 35t-97.5 -35t-37.5 -98zM346 1776h189
l-103 -426h-149z" />
    <glyph glyph-name="upsilontonos" unicode="&#x3cd;" horiz-adv-x="876" 
d="M383 1776h188l-102 -426h-150zM41 1251h70q198 0 198 -202v-752q0 -64 37.5 -98.5t95.5 -34.5q40 0 70 19.5t56 67.5t39.5 142t13.5 232q0 293 -50 626h181q47 -331 47 -594q0 -187 -24.5 -319.5t-72 -209t-109.5 -110.5t-144 -34q-137 0 -226.5 82.5t-89.5 220.5v717
q0 94 -78 94h-14v153z" />
    <glyph glyph-name="omegatonos" unicode="&#x3ce;" horiz-adv-x="1169" 
d="M125 1251h180q-49 -304 -49 -669q0 -170 16 -263.5t42.5 -124t72.5 -30.5q49 0 72.5 42.5t35 169.5t11.5 388h158q0 -198 5 -313t20 -180.5t35.5 -86t57.5 -20.5q46 0 72.5 30.5t42.5 124t16 263.5q0 365 -49 669h180q48 -307 48 -620q0 -240 -34.5 -383.5t-100 -203.5
t-171.5 -60q-77 0 -125.5 31t-76.5 98q-54 -129 -203 -129q-105 0 -170 60t-99 203.5t-34 383.5q0 319 47 620zM535 1776h188l-102 -426h-150z" />
    <glyph glyph-name="uni0400" unicode="&#x400;" horiz-adv-x="684" 
d="M94 1604h531v-183h-342v-503h241v-183h-241v-553h342v-182h-531v1604zM150 2025h198l180 -323h-161z" />
    <glyph glyph-name="uni0401" unicode="&#x401;" horiz-adv-x="684" 
d="M94 1604h531v-183h-342v-503h241v-183h-241v-553h342v-182h-531v1604zM528 2003q53 0 81 -31.5t28 -79.5q0 -50 -28 -82t-81 -32q-50 0 -77 32t-27 82q0 48 27 79.5t77 31.5zM186 2003q53 0 81 -31.5t28 -79.5q0 -50 -28 -82t-81 -32q-50 0 -77 32t-27 82q0 48 27 79.5
t77 31.5z" />
    <glyph glyph-name="uni0402" unicode="&#x402;" horiz-adv-x="1122" 
d="M41 1604h786v-183h-323v-473q86 47 196 47q145 0 243.5 -88t98.5 -233v-594q0 -71 -15.5 -130t-47.5 -106t-87.5 -73.5t-129.5 -26.5q-108 0 -176 51l47 156q44 -35 100 -35q121 0 121 164v592q0 66 -56.5 103.5t-138.5 37.5q-90 0 -155 -20v-793h-189v1421h-274v183z
" />
    <glyph glyph-name="uni0403" unicode="&#x403;" horiz-adv-x="624" 
d="M356 2025h199l-219 -323h-160zM94 1604h490v-183h-301v-1421h-189v1604z" />
    <glyph glyph-name="uni0404" unicode="&#x404;" horiz-adv-x="776" 
d="M270 1311v-393h299v-183h-299v-442q0 -67 37.5 -103t100.5 -36t101 36t38 103v33l174 45v-82q0 -144 -92.5 -231t-229.5 -87q-135 0 -225 87t-90 231v1026q0 146 90.5 231.5t235.5 85.5q143 0 227 -85t84 -232v-53h-174v49q0 68 -35.5 103.5t-99.5 35.5q-66 0 -104 -35.5
t-38 -103.5z" />
    <glyph glyph-name="uni0405" unicode="&#x405;" horiz-adv-x="770" 
d="M391 1632q143 0 226 -86t83 -227v-57h-174v43q0 70 -37 110.5t-102 40.5q-72 0 -109.5 -48.5t-37.5 -123.5q0 -101 84 -221q23 -31 88.5 -117t120.5 -162t88 -129q48 -76 69 -144.5t21 -154.5q0 -182 -81 -283.5t-241 -101.5q-154 0 -246 89.5t-92 224.5v86l174 -45v-39
q0 -60 41.5 -102t110.5 -42q75 0 114 49t39 140q0 116 -79 239q-26 40 -125 166t-140 191q-120 189 -120 358q0 159 88.5 252.5t236.5 93.5z" />
    <glyph glyph-name="uni0406" unicode="&#x406;" horiz-adv-x="376" 
d="M94 1604h189v-1604h-189v1604z" />
    <glyph glyph-name="uni0407" unicode="&#x407;" horiz-adv-x="493" 
d="M152 1604h188v-1604h-188v1604zM416 2003q53 0 80.5 -31t27.5 -80q0 -50 -27.5 -82t-80.5 -32q-50 0 -77.5 32t-27.5 82q0 48 27.5 79.5t77.5 31.5zM74 2003q53 0 80.5 -31t27.5 -80q0 -50 -27.5 -82t-80.5 -32q-50 0 -77.5 32t-27.5 82q0 48 27.5 79.5t77.5 31.5z" />
    <glyph glyph-name="uni0408" unicode="&#x408;" horiz-adv-x="768" 
d="M492 1604h186v-1315q0 -145 -89.5 -231.5t-230.5 -86.5t-229 86t-88 232v82l174 -45v-33q0 -67 37 -103t100 -36q65 0 102.5 36t37.5 103v1311z" />
    <glyph glyph-name="uni0409" unicode="&#x409;" horiz-adv-x="1427" 
d="M408 1604h493v-697h143q152 0 236 -92.5t84 -275.5v-170q0 -183 -84.5 -276t-235.5 -93h-331v1421h-166q-8 -483 -76 -843q-32 -167 -70.5 -281t-86.5 -178.5t-100.5 -91.5t-119.5 -27h-53v182h39q26 0 47.5 7.5t49.5 34t52 71.5t50 126t47 191q82 428 82 992zM901 725
v-543h129q148 0 148 174v193q0 176 -148 176h-129z" />
    <glyph glyph-name="uni040A" unicode="&#x40a;" horiz-adv-x="1282" 
d="M94 1604h189v-699h284v699h189v-697h143q152 0 236 -92.5t84 -275.5v-170q0 -183 -84.5 -276t-235.5 -93h-332v725h-284v-725h-189v1604zM756 725v-543h129q147 0 147 174v193q0 89 -36 132.5t-111 43.5h-129z" />
    <glyph glyph-name="uni040B" unicode="&#x40b;" horiz-adv-x="1034" 
d="M41 1604h786v-183h-323v-475q86 49 196 49q271 0 271 -321v-674h-189v672q0 71 -34.5 106t-112.5 35q-79 0 -131 -22v-791h-189v1421h-274v183z" />
    <glyph glyph-name="uni040C" unicode="&#x40c;" horiz-adv-x="792" 
d="M549 1604h192l-299 -656l324 -948h-197l-286 866v-866h-189v1604h189v-596zM412 2025h198l-219 -323h-160z" />
    <glyph glyph-name="uni040D" unicode="&#x40d;" horiz-adv-x="849" 
d="M217 2025h199l180 -323h-162zM94 1604h178v-1086l283 1086h201v-1604h-181v1192l-321 -1192h-160v1604z" />
    <glyph glyph-name="uni040E" unicode="&#x40e;" horiz-adv-x="884" 
d="M182 2025h135q11 -210 125 -210t125 210h133q-7 -136 -71 -226.5t-187 -90.5q-64 0 -114 26.5t-80 72t-46.5 100.5t-19.5 118zM41 1604h190l213 -820l226 820h182l-383 -1364q-39 -140 -104.5 -190t-200.5 -50h-105v180h88q78 0 111 24.5t53 98.5l41 152z" />
    <glyph glyph-name="uni040F" unicode="&#x40f;" horiz-adv-x="849" 
d="M756 0h-250v-350h-164v350h-248v1604h189v-1422h284v1422h189v-1604z" />
    <glyph glyph-name="uni0410" unicode="&#x410;" 
d="M307 1604h187l278 -1604h-182l-37 231h-299l-35 -231h-182zM401 1192l-122 -803h249z" />
    <glyph glyph-name="uni0411" unicode="&#x411;" 
d="M94 1604h490v-183h-301v-514h143q151 0 235 -92.5t84 -275.5v-170q0 -183 -84 -276t-235 -93h-332v1604zM283 725v-543h129q147 0 147 174v193q0 89 -36 132.5t-111 43.5h-129z" />
    <glyph glyph-name="uni0412" unicode="&#x412;" horiz-adv-x="823" 
d="M94 1604h326q148 0 232.5 -84.5t84.5 -233.5v-223q0 -97 -28.5 -152t-87.5 -80q67 -26 101 -84.5t34 -160.5v-256q0 -157 -85.5 -243.5t-234.5 -86.5h-342v1604zM279 745v-567h143q147 0 147 164v246q0 87 -33 122t-114 35h-143zM279 1425v-518h131q78 0 110.5 33.5
t32.5 116.5v207q0 161 -147 161h-127z" />
    <glyph glyph-name="uni0413" unicode="&#x413;" horiz-adv-x="624" 
d="M94 1604h490v-183h-301v-1421h-189v1604z" />
    <glyph glyph-name="uni0414" unicode="&#x414;" horiz-adv-x="1196" 
d="M444 1604h494v-1422h217v-532h-164v350h-786v-350h-164v532h76q25 0 47 7.5t50 34t51.5 71.5t49.5 126t47 191q82 428 82 992zM387 182h363v1239h-166q-8 -483 -76 -843q-47 -248 -121 -396z" />
    <glyph glyph-name="uni0415" unicode="&#x415;" horiz-adv-x="684" 
d="M94 1604h531v-183h-342v-503h241v-183h-241v-553h342v-182h-531v1604z" />
    <glyph glyph-name="uni0416" unicode="&#x416;" horiz-adv-x="1208" 
d="M510 1604h188v-596l267 596h192l-299 -656l324 -948h-197l-287 866v-866h-188v866l-287 -866h-196l323 948l-299 656h193l266 -596v596z" />
    <glyph glyph-name="uni0417" unicode="&#x417;" horiz-adv-x="788" 
d="M379 1632q155 0 239 -95.5t84 -250.5v-223q0 -97 -28.5 -152t-87.5 -80q67 -26 101 -84.5t34 -160.5v-299q0 -143 -94.5 -229.5t-237.5 -86.5q-142 0 -231.5 86t-89.5 232v82l174 -45v-33q0 -68 39 -103.5t106 -35.5q69 0 108.5 35.5t39.5 103.5v295q0 86 -33 121.5
t-115 35.5h-113v162h101q78 0 110.5 33.5t32.5 116.5v231q0 162 -141 162q-135 0 -135 -147v-41h-174v53q0 147 84 232t227 85z" />
    <glyph glyph-name="uni0418" unicode="&#x418;" horiz-adv-x="849" 
d="M94 1604h178v-1086l283 1086h201v-1604h-181v1192l-321 -1192h-160v1604z" />
    <glyph glyph-name="uni0419" unicode="&#x419;" horiz-adv-x="849" 
d="M164 2025h135q11 -210 125 -210t125 210h133q-7 -136 -71 -226.5t-187 -90.5q-64 0 -114 26.5t-80 72t-46.5 100.5t-19.5 118zM94 1604h178v-1086l283 1086h201v-1604h-181v1192l-321 -1192h-160v1604z" />
    <glyph glyph-name="uni041A" unicode="&#x41a;" horiz-adv-x="792" 
d="M549 1604h192l-299 -656l324 -948h-197l-286 866v-866h-189v1604h189v-596z" />
    <glyph glyph-name="uni041B" unicode="&#x41b;" horiz-adv-x="995" 
d="M408 1604h493v-1604h-188v1421h-166q-8 -483 -76 -843q-32 -167 -70.5 -281t-86.5 -178.5t-100.5 -91.5t-119.5 -27h-53v182h39q26 0 47.5 7.5t49.5 34t52 71.5t50 126t47 191q82 428 82 992z" />
    <glyph glyph-name="uni041C" unicode="&#x41c;" horiz-adv-x="1095" 
d="M94 1604h205l250 -1272l264 1272h188v-1604h-167v1034l-197 -1034h-174l-201 1049v-1049h-168v1604z" />
    <glyph glyph-name="uni041D" unicode="&#x41d;" horiz-adv-x="849" 
d="M94 1604h189v-699h284v699h189v-1604h-189v725h-284v-725h-189v1604z" />
    <glyph glyph-name="uni041E" unicode="&#x41e;" horiz-adv-x="827" 
d="M743 1311v-1018q0 -147 -94 -234.5t-235 -87.5q-142 0 -236 87.5t-94 234.5v1018q0 147 94 234t236 87q141 0 235 -87t94 -234zM270 1309v-1014q0 -67 39.5 -104t104.5 -37t104 37t39 104v1014q0 67 -39 104t-104 37t-104.5 -37t-39.5 -104z" />
    <glyph glyph-name="uni041F" unicode="&#x41f;" horiz-adv-x="849" 
d="M94 1604h662v-1604h-189v1421h-284v-1421h-189v1604z" />
    <glyph glyph-name="uni0420" unicode="&#x420;" 
d="M94 1604h332q151 0 235 -93t84 -276v-234q0 -183 -84 -275.5t-235 -92.5h-143v-633h-189v1604zM283 1421v-606h129q147 0 147 174v258q0 174 -147 174h-129z" />
    <glyph glyph-name="uni0421" unicode="&#x421;" horiz-adv-x="776" 
d="M270 1311v-1018q0 -67 37.5 -103t100.5 -36t101 36t38 103v33l174 45v-82q0 -144 -92.5 -231t-229.5 -87q-135 0 -225 87t-90 231v1026q0 146 90.5 231.5t235.5 85.5q143 0 227 -85t84 -232v-53h-174v49q0 68 -35.5 103.5t-99.5 35.5q-66 0 -104 -35.5t-38 -103.5z" />
    <glyph glyph-name="uni0422" unicode="&#x422;" horiz-adv-x="630" 
d="M41 1604h549v-183h-180v-1421h-189v1421h-180v183z" />
    <glyph glyph-name="uni0423" unicode="&#x423;" horiz-adv-x="884" 
d="M41 1604h190l213 -820l226 820h182l-383 -1364q-39 -140 -104.5 -190t-200.5 -50h-105v180h88q78 0 111 24.5t53 98.5l41 152z" />
    <glyph glyph-name="uni0424" unicode="&#x424;" horiz-adv-x="1155" 
d="M483 1604h189v-179q118 -7 197.5 -31t123 -67t61 -95.5t17.5 -125.5v-608q0 -73 -17.5 -125.5t-61 -96t-123 -67.5t-197.5 -31v-178h-189v178q-118 7 -197.5 31t-123 67.5t-61 96t-17.5 125.5v608q0 73 17.5 125.5t61 95.5t123 67t197.5 31v179zM270 1104v-604
q0 -44 15 -70.5t63 -45.5t135 -24v883q-127 -8 -170 -40.5t-43 -98.5zM885 1104q0 65 -43.5 98t-169.5 41v-883q125 7 169 40.5t44 99.5v604z" />
    <glyph glyph-name="uni0425" unicode="&#x425;" horiz-adv-x="835" 
d="M602 1604h182l-274 -770l299 -834h-199l-204 586l-201 -586h-178l284 852l-262 752h191l178 -508z" />
    <glyph glyph-name="uni0426" unicode="&#x426;" horiz-adv-x="1013" 
d="M756 182h217v-532h-164v350h-715v1604h189v-1422h284v1422h189v-1422z" />
    <glyph glyph-name="uni0427" unicode="&#x427;" horiz-adv-x="827" 
d="M545 1604h188v-1604h-188v657q-86 -49 -197 -49q-270 0 -270 322v674h188v-672q0 -72 35.5 -106.5t116.5 -34.5q69 0 127 20v793z" />
    <glyph glyph-name="uni0428" unicode="&#x428;" horiz-adv-x="1271" 
d="M94 1604h189v-1422h260v1422h188v-1422h258v1422h189v-1604h-1084v1604z" />
    <glyph glyph-name="uni0429" unicode="&#x429;" horiz-adv-x="1435" 
d="M94 1604h189v-1422h260v1422h188v-1422h258v1422h189v-1422h217v-532h-164v350h-1137v1604z" />
    <glyph glyph-name="uni042A" unicode="&#x42a;" horiz-adv-x="1030" 
d="M41 1604h463v-697h143q152 0 236 -92.5t84 -275.5v-170q0 -183 -84.5 -276t-235.5 -93h-332v1421h-274v183zM504 725v-543h129q147 0 147 174v193q0 89 -36 132.5t-111 43.5h-129z" />
    <glyph glyph-name="uni042B" unicode="&#x42b;" horiz-adv-x="1142" 
d="M860 1604h189v-1604h-189v1604zM94 1604h189v-697h143q151 0 235 -92.5t84 -275.5v-170q0 -183 -84 -276t-235 -93h-332v1604zM283 725v-543h129q147 0 147 174v193q0 89 -36 132.5t-111 43.5h-129z" />
    <glyph glyph-name="uni042C" unicode="&#x42c;" 
d="M94 1604h189v-697h143q151 0 235 -92.5t84 -275.5v-170q0 -183 -84 -276t-235 -93h-332v1604zM283 725v-543h129q147 0 147 174v193q0 89 -36 132.5t-111 43.5h-129z" />
    <glyph glyph-name="uni042D" unicode="&#x42d;" horiz-adv-x="776" 
d="M367 1632q145 0 235 -85.5t90 -231.5v-1026q0 -144 -90 -231t-225 -87q-137 0 -229.5 87t-92.5 231v82l174 -45v-33q0 -67 38.5 -103t101.5 -36t100 36t37 103v442h-299v183h299v393q0 68 -37.5 103.5t-103.5 35.5q-64 0 -100 -35.5t-36 -103.5v-49h-174v53
q0 147 84.5 232t227.5 85z" />
    <glyph glyph-name="uni042E" unicode="&#x42e;" horiz-adv-x="1173" 
d="M1090 1311v-1018q0 -147 -94.5 -234.5t-235.5 -87.5q-142 0 -236 87.5t-94 234.5v442h-147v-735h-189v1604h189v-686h147v393q0 147 94 234t236 87q141 0 235.5 -87t94.5 -234zM616 1309v-1014q0 -67 39.5 -104t104.5 -37t104 37t39 104v1014q0 67 -39 104t-104 37
t-104.5 -37t-39.5 -104z" />
    <glyph glyph-name="uni042F" unicode="&#x42f;" horiz-adv-x="839" 
d="M420 1604h325v-1604h-184v719h-125l-213 -719h-196l229 756q-74 40 -114 117t-40 182v231q0 149 85 233.5t233 84.5zM287 1264v-217q0 -166 147 -166h127v544h-127q-147 0 -147 -161z" />
    <glyph glyph-name="uni0430" unicode="&#x430;" horiz-adv-x="786" 
d="M209 1004l-100 124q44 65 122 102.5t168 37.5q145 0 221 -92.5t76 -247.5v-928h-114l-33 70q-103 -86 -230 -86q-54 0 -99.5 17.5t-83.5 54t-59.5 101t-21.5 150.5q0 135 59.5 233t198.5 203q94 68 211 142v39q0 81 -38 128.5t-111 47.5q-52 0 -95.5 -25.5t-70.5 -70.5z
M373 156q80 0 151 71v482q-82 -52 -121 -82q-92 -71 -128.5 -140.5t-36.5 -152.5q0 -178 135 -178z" />
    <glyph glyph-name="uni0431" unicode="&#x431;" horiz-adv-x="790" 
d="M381 1591h139q70 0 100.5 23t30.5 76v22h90v-22q-3 -150 -52 -214.5t-159 -64.5h-137q-99 0 -138.5 -29.5t-39.5 -119.5v-99q77 49 180 49q133 0 222.5 -83t89.5 -220v-622q0 -137 -89.5 -220t-222.5 -83q-134 0 -222.5 82.5t-88.5 220.5v997q0 163 70 235t227 72z
M260 899v-602q0 -63 37.5 -98t97.5 -35t96.5 35t36.5 98v602q0 63 -36.5 98t-96.5 35t-97.5 -35t-37.5 -98z" />
    <glyph glyph-name="uni0432" unicode="&#x432;" horiz-adv-x="813" 
d="M94 1251h324q147 0 230 -65t83 -182v-173q0 -76 -28.5 -119.5t-86.5 -62.5q66 -21 100 -66.5t34 -125.5v-199q0 -123 -84 -190.5t-232 -67.5h-340v1251zM276 580v-433h144q147 0 147 127v183q0 67 -33 95t-114 28h-144zM276 1102v-389h132q79 0 111 24.5t32 87.5v156
q0 121 -148 121h-127z" />
    <glyph glyph-name="uni0433" unicode="&#x433;" horiz-adv-x="638" 
d="M94 1251h504v-153h-322v-1098h-182v1251z" />
    <glyph glyph-name="uni0434" unicode="&#x434;" horiz-adv-x="1107" 
d="M393 1251h473v-1097h201v-504h-154v350h-718v-350h-154v504h37q24 0 45 5.5t48.5 25.5t51 53.5t48 94.5t44.5 144q34 145 56 357.5t22 416.5zM348 154h336v944h-156q-12 -384 -73 -647q-44 -187 -107 -297z" />
    <glyph glyph-name="uni0435" unicode="&#x435;" horiz-adv-x="768" 
d="M494 561q-94 -81 -234 -168v-100q0 -63 36 -98t95 -35q60 0 96.5 35t36.5 98v80l166 43v-129q0 -138 -87 -220.5t-218 -82.5q-129 0 -215 82.5t-86 220.5v678q0 138 86 220.5t217 82.5q59 0 110.5 -17t97.5 -53.5t72.5 -103t26.5 -156.5q0 -114 -47 -202t-153 -175z
M260 956v-387q91 60 141 107q63 58 90 116.5t27 133.5q0 91 -37 132.5t-96 41.5t-92 -38.5t-33 -105.5z" />
    <glyph glyph-name="uni0436" unicode="&#x436;" horiz-adv-x="1167" 
d="M494 1251h182v-465l254 465h186l-287 -512l312 -739h-189l-276 674v-674h-182v678l-279 -678h-188l311 739l-287 512h187l256 -467v467z" />
    <glyph glyph-name="uni0437" unicode="&#x437;" horiz-adv-x="770" 
d="M375 1268q153 0 236 -73t83 -194v-172q0 -75 -28 -118t-86 -62q66 -21 98.5 -66t32.5 -126v-230q0 -112 -92.5 -177.5t-233.5 -65.5t-229 65t-88 180v187l165 -43v-103q0 -52 41 -79t109 -27t106.5 26.5t38.5 77.5v183q0 65 -33 92.5t-112 27.5h-150v150h138
q78 0 109.5 24.5t31.5 88.5v131q0 122 -139 122q-68 0 -104 -28t-36 -82v-66h-165v111q0 115 82.5 180.5t224.5 65.5z" />
    <glyph glyph-name="uni0438" unicode="&#x438;" horiz-adv-x="835" 
d="M94 1251h182v-819l265 819h200v-1251h-182v905l-301 -905h-164v1251z" />
    <glyph glyph-name="uni0439" unicode="&#x439;" horiz-adv-x="835" 
d="M158 1673h135q11 -211 125 -211t125 211h133q-7 -136 -71 -226.5t-187 -90.5q-64 0 -114 26.5t-80 72t-46.5 100.5t-19.5 118zM94 1251h182v-819l265 819h200v-1251h-182v905l-301 -905h-164v1251z" />
    <glyph glyph-name="uni043A" unicode="&#x43a;" horiz-adv-x="768" 
d="M530 1251h187l-287 -512l311 -739h-188l-277 674v-674h-182v1251h182v-465z" />
    <glyph glyph-name="uni043B" unicode="&#x43b;" horiz-adv-x="960" 
d="M393 1251h473v-1251h-182v1098h-156q-12 -384 -73 -647q-31 -134 -69.5 -224t-85 -139t-96 -68.5t-112.5 -19.5h-51v154h37q24 0 45 5.5t48.5 25.5t51 53.5t48 94.5t44.5 144q78 344 78 774z" />
    <glyph glyph-name="uni043C" unicode="&#x43c;" horiz-adv-x="1101" 
d="M94 1251h205l254 -991l264 991h191v-1251h-168v813l-201 -813h-174l-203 821v-821h-168v1251z" />
    <glyph glyph-name="uni043D" unicode="&#x43d;" horiz-adv-x="835" 
d="M94 1251h182v-514h283v514h182v-1251h-182v584h-283v-584h-182v1251z" />
    <glyph glyph-name="uni043E" unicode="&#x43e;" horiz-adv-x="790" 
d="M707 965v-678q0 -137 -89.5 -220t-222.5 -83q-134 0 -222.5 82.5t-88.5 220.5v678q0 138 88.5 220.5t222.5 82.5q133 0 222.5 -83t89.5 -220zM260 954v-657q0 -63 37.5 -98t97.5 -35t96.5 35t36.5 98v657q0 63 -36.5 98t-96.5 35t-97.5 -35t-37.5 -98z" />
    <glyph glyph-name="uni043F" unicode="&#x43f;" horiz-adv-x="835" 
d="M94 1251h647v-1251h-182v1098h-283v-1098h-182v1251z" />
    <glyph glyph-name="uni0440" unicode="&#x440;" horiz-adv-x="819" 
d="M94 1251h125l31 -77q97 94 227 94q110 0 184 -78.5t74 -224.5v-678q0 -146 -74 -224.5t-184 -78.5q-115 0 -201 71v-405h-182v1601zM426 1087q-82 0 -150 -71v-780q69 -72 150 -72q127 0 127 162v600q0 161 -127 161z" />
    <glyph glyph-name="uni0441" unicode="&#x441;" horiz-adv-x="757" 
d="M260 954v-657q0 -63 36 -98t95 -35q60 0 96.5 35t36.5 98v76l166 43v-129q0 -138 -87 -220.5t-218 -82.5q-129 0 -215 82.5t-86 220.5v678q0 138 86 220.5t215 82.5q131 0 218 -82.5t87 -220.5v-54h-166v43q0 63 -36.5 98t-96.5 35q-59 0 -95 -35t-36 -98z" />
    <glyph glyph-name="uni0442" unicode="&#x442;" horiz-adv-x="735" 
d="M41 1251h653v-153h-233v-1098h-182v1098h-238v153z" />
    <glyph glyph-name="uni0443" unicode="&#x443;" horiz-adv-x="794" 
d="M39 1251h176l162 -817l205 817h174l-396 -1601h-178l107 430z" />
    <glyph glyph-name="uni0444" unicode="&#x444;" horiz-adv-x="1138" 
d="M479 1624l180 45v-403q120 -6 199.5 -29t122 -64t58.5 -90t16 -118v-678q0 -70 -16 -119t-58.5 -90t-122 -63.5t-199.5 -28.5v-336h-180v336q-120 6 -199.5 28.5t-121.5 63.5t-58 90t-16 119v678q0 69 16 118t58 90t121.5 64t199.5 29v358zM260 954v-657q0 -41 15.5 -66
t65 -42.5t138.5 -22.5v919q-89 -5 -138.5 -23t-65 -43t-15.5 -65zM877 954q0 41 -15.5 65.5t-64.5 42.5t-138 23v-919q89 5 138 22.5t64.5 42.5t15.5 66v657z" />
    <glyph glyph-name="uni0445" unicode="&#x445;" horiz-adv-x="854" 
d="M614 1251h189l-281 -600l305 -651h-202l-211 457l-205 -457h-182l292 664l-270 587h195l182 -395z" />
    <glyph glyph-name="uni0446" unicode="&#x446;" horiz-adv-x="983" 
d="M942 -350h-154v350h-694v1251h182v-1097h283v1097h182v-1097h201v-504z" />
    <glyph glyph-name="uni0447" unicode="&#x447;" horiz-adv-x="823" 
d="M547 1251h182v-1251h-182v508q-87 -51 -195 -51q-258 0 -258 309v485h182v-483q0 -137 140 -137q68 0 131 24v596z" />
    <glyph glyph-name="uni0448" unicode="&#x448;" horiz-adv-x="1241" 
d="M94 1251h182v-1097h254v1097h183v-1097h252v1097h182v-1251h-1053v1251z" />
    <glyph glyph-name="uni0449" unicode="&#x449;" horiz-adv-x="1388" 
d="M94 1251h182v-1097h254v1097h183v-1097h252v1097h182v-1097h201v-504h-154v350h-1100v1251z" />
    <glyph glyph-name="uni044A" unicode="&#x44a;" horiz-adv-x="993" 
d="M41 1251h424v-501h135q145 0 226 -77.5t81 -230.5v-133q0 -153 -81 -231t-226 -78h-317v1098h-242v153zM465 596v-442h123q141 0 141 145v154q0 143 -141 143h-123z" />
    <glyph glyph-name="uni044B" unicode="&#x44b;" horiz-adv-x="1120" 
d="M94 1251h182v-501h136q145 0 226 -77.5t81 -230.5v-133q0 -153 -81 -231t-226 -78h-318v1251zM276 596v-442h123q142 0 142 145v154q0 143 -142 143h-123zM844 1251h182v-1251h-182v1251z" />
    <glyph glyph-name="uni044C" unicode="&#x44c;" horiz-adv-x="804" 
d="M94 1251h182v-501h136q145 0 226 -77.5t81 -230.5v-133q0 -153 -81 -231t-226 -78h-318v1251zM276 596v-442h123q142 0 142 145v154q0 143 -142 143h-123z" />
    <glyph glyph-name="uni044D" unicode="&#x44d;" horiz-adv-x="757" 
d="M373 1268q129 0 215 -82.5t86 -220.5v-678q0 -138 -86 -220.5t-215 -82.5q-131 0 -218 82.5t-87 220.5v129l165 -43v-76q0 -63 36.5 -98t95.5 -35q60 0 95.5 35t35.5 98v272h-271v150h271v235q0 63 -35.5 98t-95.5 35q-59 0 -95.5 -35t-36.5 -98v-43h-165v54
q0 138 87 220.5t218 82.5z" />
    <glyph glyph-name="uni044E" unicode="&#x44e;" horiz-adv-x="1120" 
d="M94 1251h182v-544h138v258q0 138 88.5 220.5t222.5 82.5q133 0 222 -83t89 -220v-678q0 -137 -89 -220t-222 -83q-134 0 -222.5 82.5t-88.5 220.5v266h-138v-553h-182v1251zM590 954v-657q0 -63 37.5 -98t97.5 -35t96.5 35t36.5 98v657q0 63 -36.5 98t-96.5 35t-97.5 -35
t-37.5 -98z" />
    <glyph glyph-name="uni044F" unicode="&#x44f;" horiz-adv-x="839" 
d="M418 1251h327v-1251h-182v559h-129l-211 -559h-196l229 588q-72 31 -111 90.5t-39 142.5v183q0 117 82.5 182t229.5 65zM287 981v-162q0 -127 145 -127h131v410h-131q-145 0 -145 -121z" />
    <glyph glyph-name="uni0450" unicode="&#x450;" horiz-adv-x="768" 
d="M494 561q-94 -81 -234 -168v-100q0 -63 36 -98t95 -35q60 0 96.5 35t36.5 98v80l166 43v-129q0 -138 -87 -220.5t-218 -82.5q-129 0 -215 82.5t-86 220.5v678q0 138 86 220.5t217 82.5q59 0 110.5 -17t97.5 -53.5t72.5 -103t26.5 -156.5q0 -114 -47 -202t-153 -175z
M260 956v-387q91 60 141 107q63 58 90 116.5t27 133.5q0 91 -37 132.5t-96 41.5t-92 -38.5t-33 -105.5zM199 1673h198l181 -323h-162z" />
    <glyph glyph-name="uni0451" unicode="&#x451;" horiz-adv-x="768" 
d="M494 561q-94 -81 -234 -168v-100q0 -63 36 -98t95 -35q60 0 96.5 35t36.5 98v80l166 43v-129q0 -138 -87 -220.5t-218 -82.5q-129 0 -215 82.5t-86 220.5v678q0 138 86 220.5t217 82.5q59 0 110.5 -17t97.5 -53.5t72.5 -103t26.5 -156.5q0 -114 -47 -202t-153 -175z
M260 956v-387q91 60 141 107q63 58 90 116.5t27 133.5q0 91 -37 132.5t-96 41.5t-92 -38.5t-33 -105.5zM555 1651q53 0 81 -31.5t28 -79.5q0 -50 -28 -82.5t-81 -32.5q-50 0 -77 32.5t-27 82.5q0 48 27 79.5t77 31.5zM213 1651q53 0 81 -31.5t28 -79.5q0 -50 -28 -82.5
t-81 -32.5q-50 0 -77 32.5t-27 82.5q0 48 27 79.5t77 31.5z" />
    <glyph glyph-name="uni0452" unicode="&#x452;" horiz-adv-x="825" 
d="M94 1624l182 45v-156h400v-137h-400v-174q87 66 197 66q114 0 188 -78t74 -225v-1018q0 -91 -28 -161.5t-92.5 -115.5t-159.5 -45q-101 0 -168 49l49 158q46 -35 92 -35q59 0 92 40t33 110v979q0 161 -131 161q-78 0 -146 -65v-1022h-182v1376h-82v137h82v111z" />
    <glyph glyph-name="uni0453" unicode="&#x453;" horiz-adv-x="638" 
d="M365 1673h198l-219 -323h-160zM94 1251h504v-153h-322v-1098h-182v1251z" />
    <glyph glyph-name="uni0454" unicode="&#x454;" horiz-adv-x="757" 
d="M260 954v-235h272v-150h-272v-272q0 -63 36 -98t95 -35q60 0 96.5 35t36.5 98v76l166 43v-129q0 -138 -87 -220.5t-218 -82.5q-129 0 -215 82.5t-86 220.5v678q0 138 86 220.5t215 82.5q131 0 218 -82.5t87 -220.5v-54h-166v43q0 63 -36.5 98t-96.5 35q-59 0 -95 -35
t-36 -98z" />
    <glyph glyph-name="uni0455" unicode="&#x455;" horiz-adv-x="747" 
d="M383 1268q149 0 225 -77t76 -198v-82h-166v58q0 62 -35 94.5t-102 32.5q-69 0 -104 -32t-35 -89q0 -71 75 -152q32 -35 139 -132t146 -146q88 -109 88 -252t-78.5 -226t-236.5 -83q-150 0 -235 77t-85 213v142l166 -43v-84q0 -61 39.5 -96t114.5 -35q145 0 145 141
q0 43 -15 77t-56 81q-48 55 -149.5 146.5t-135.5 131.5q-98 117 -98 250q0 135 85 209t232 74z" />
    <glyph glyph-name="uni0456" unicode="&#x456;" horiz-adv-x="370" 
d="M94 1251h182v-1251h-182v1251zM186 1651q53 0 81 -31.5t28 -79.5q0 -50 -28 -82.5t-81 -32.5q-50 0 -77 32.5t-27 82.5q0 48 27 79.5t77 31.5z" />
    <glyph glyph-name="uni0457" unicode="&#x457;" horiz-adv-x="538" 
d="M438 1651q53 0 81 -31.5t28 -79.5q0 -50 -28 -82.5t-81 -32.5q-50 0 -77 32.5t-27 82.5q0 48 27 79.5t77 31.5zM96 1651q53 0 81 -31.5t28 -79.5q0 -50 -28 -82.5t-81 -32.5q-50 0 -77 32.5t-27 82.5q0 48 27 79.5t77 31.5zM180 1251h182v-1251h-182v1251z" />
    <glyph glyph-name="uni0458" unicode="&#x458;" horiz-adv-x="397" 
d="M127 1251h176v-1304q0 -91 -28 -161.5t-92.5 -115.5t-159.5 -45q-101 0 -168 49l49 158q46 -35 92 -35q60 0 95.5 40.5t35.5 109.5v1304zM215 1651q53 0 81 -31.5t28 -79.5q0 -50 -28 -82.5t-81 -32.5q-50 0 -77 32.5t-27 82.5q0 48 27 79.5t77 31.5z" />
    <glyph glyph-name="uni0459" unicode="&#x459;" horiz-adv-x="1394" 
d="M393 1251h473v-501h135q145 0 226.5 -77.5t81.5 -230.5v-133q0 -153 -81.5 -231t-226.5 -78h-317v1098h-156q-12 -384 -73 -647q-31 -134 -69.5 -224t-85 -139t-96 -68.5t-112.5 -19.5h-51v154h37q24 0 45 5.5t48.5 25.5t51 53.5t48 94.5t44.5 144q78 344 78 774z
M866 596v-442h123q141 0 141 145v154q0 143 -141 143h-123z" />
    <glyph glyph-name="uni045A" unicode="&#x45a;" horiz-adv-x="1269" 
d="M94 1251h182v-514h283v514h182v-514h136q307 0 307 -295v-133q0 -153 -81 -231t-226 -78h-318v584h-283v-584h-182v1251zM741 584v-430h123q142 0 142 145v154q0 70 -35 100.5t-107 30.5h-123z" />
    <glyph glyph-name="uni045B" unicode="&#x45b;" horiz-adv-x="825" 
d="M94 1624l182 45v-156h400v-137h-400v-174q87 66 197 66q114 0 188 -78t74 -225v-965h-182v926q0 161 -131 161q-78 0 -146 -65v-1022h-182v1376h-82v137h82v111z" />
    <glyph glyph-name="uni045C" unicode="&#x45c;" horiz-adv-x="768" 
d="M401 1673h199l-219 -323h-160zM530 1251h187l-287 -512l311 -739h-188l-277 674v-674h-182v1251h182v-465z" />
    <glyph glyph-name="uni045D" unicode="&#x45d;" horiz-adv-x="835" 
d="M213 1673h199l180 -323h-162zM94 1251h182v-819l265 819h200v-1251h-182v905l-301 -905h-164v1251z" />
    <glyph glyph-name="uni045E" unicode="&#x45e;" horiz-adv-x="794" 
d="M123 1673h135q11 -211 125 -211t125 211h133q-7 -136 -71 -226.5t-187 -90.5q-64 0 -114 26.5t-80 72t-46.5 100.5t-19.5 118zM39 1251h176l162 -817l205 817h174l-396 -1601h-178l107 430z" />
    <glyph glyph-name="uni045F" unicode="&#x45f;" horiz-adv-x="835" 
d="M741 0h-245v-350h-154v350h-248v1251h182v-1097h283v1097h182v-1251z" />
    <glyph glyph-name="uni0490" unicode="&#x490;" horiz-adv-x="624" 
d="M94 1604h326v350h164v-533h-301v-1421h-189v1604z" />
    <glyph glyph-name="uni0491" unicode="&#x491;" horiz-adv-x="638" 
d="M94 1251h350v351h154v-504h-322v-1098h-182v1251z" />
    <glyph glyph-name="uni0492" unicode="&#x492;" horiz-adv-x="696" 
d="M166 1604h489v-183h-301v-497h322v-138h-322v-786h-188v786h-154v138h154v680z" />
    <glyph glyph-name="uni0493" unicode="&#x493;" horiz-adv-x="710" 
d="M166 1251h504v-153h-322v-404h328v-137h-328v-557h-182v557h-154v137h154v557z" />
    <glyph glyph-name="uni0496" unicode="&#x496;" horiz-adv-x="1359" 
d="M510 1604h188v-596l267 596h192l-299 -656l260 -766h201v-532h-164v350h-170l-287 866v-866h-188v866l-287 -866h-196l323 948l-299 656h193l266 -596v596z" />
    <glyph glyph-name="uni0497" unicode="&#x497;" horiz-adv-x="1298" 
d="M494 1251h182v-465l254 465h186l-287 -512l246 -585h185v-504h-154v350h-154l-276 674v-674h-182v678l-279 -678h-188l311 739l-287 512h187l256 -467v467z" />
    <glyph glyph-name="uni049A" unicode="&#x49a;" horiz-adv-x="940" 
d="M549 1604h192l-299 -656l260 -766h195v-532h-164v350h-164l-286 866v-866h-189v1604h189v-596z" />
    <glyph glyph-name="uni049B" unicode="&#x49b;" horiz-adv-x="901" 
d="M530 1251h187l-287 -512l246 -585h184v-504h-153v350h-154l-277 674v-674h-182v1251h182v-465z" />
    <glyph glyph-name="uni04A2" unicode="&#x4a2;" horiz-adv-x="1013" 
d="M94 1604h189v-699h284v699h189v-1422h217v-532h-164v350h-242v725h-284v-725h-189v1604z" />
    <glyph glyph-name="uni04A3" unicode="&#x4a3;" horiz-adv-x="983" 
d="M94 1251h182v-514h283v514h182v-1097h201v-504h-154v350h-229v584h-283v-584h-182v1251z" />
    <glyph glyph-name="uni04AE" unicode="&#x4ae;" horiz-adv-x="843" 
d="M27 1604h190l207 -623l211 623h182l-301 -854v-750h-188v750z" />
    <glyph glyph-name="uni04AF" unicode="&#x4af;" horiz-adv-x="774" 
d="M39 1251h176l170 -927l178 927h174l-260 -1251v-350h-182v350z" />
    <glyph glyph-name="uni04B0" unicode="&#x4b0;" horiz-adv-x="843" 
d="M90 748h238v2l-301 854h190l207 -623l211 623h182l-301 -854v-2h238v-138h-238v-610h-188v610h-238v138z" />
    <glyph glyph-name="uni04B1" unicode="&#x4b1;" horiz-adv-x="774" 
d="M39 1251h176l170 -925l178 925h174l-231 -1114h213v-137h-242v-350h-182v350h-240v137h211z" />
    <glyph glyph-name="uni04B2" unicode="&#x4b2;" horiz-adv-x="980" 
d="M602 1604h182l-274 -770l233 -652h197v-532h-164v350h-166l-204 586l-201 -586h-178l284 852l-262 752h191l178 -508z" />
    <glyph glyph-name="uni04B3" unicode="&#x4b3;" horiz-adv-x="968" 
d="M614 1251h189l-281 -600l234 -497h172v-504h-154v350h-149l-211 457l-205 -457h-182l292 664l-270 587h195l182 -395z" />
    <glyph glyph-name="uni04B6" unicode="&#x4b6;" horiz-adv-x="991" 
d="M545 1604h188v-1422h217v-532h-164v350h-241v657q-86 -49 -197 -49q-270 0 -270 322v674h188v-672q0 -71 35 -106t113 -35q73 0 131 20v793z" />
    <glyph glyph-name="uni04B7" unicode="&#x4b7;" horiz-adv-x="970" 
d="M547 1251h182v-1097h201v-504h-154v350h-229v508q-87 -51 -195 -51q-258 0 -258 309v485h182v-483q0 -137 140 -137q68 0 131 24v596z" />
    <glyph glyph-name="uni04BA" unicode="&#x4ba;" horiz-adv-x="823" 
d="M266 0h-188v1604h188v-658q86 49 197 49q270 0 270 -321v-674h-188v672q0 71 -35 106t-113 35q-79 0 -131 -22v-791z" />
    <glyph glyph-name="uni04BB" unicode="&#x4bb;" horiz-adv-x="823" 
d="M276 0h-182v1251h182v-510q89 54 195 54q258 0 258 -310v-485h-182v483q0 138 -139 138q-70 0 -132 -27v-594z" />
    <glyph glyph-name="uni04C0" unicode="&#x4c0;" horiz-adv-x="376" 
d="M94 1604h189v-1604h-189v1604z" />
    <glyph glyph-name="uni04C3" unicode="&#x4c3;" horiz-adv-x="792" 
d="M549 1604h192l-299 -656l324 -948q0 -177 -69 -276t-212 -99q-101 0 -168 49l50 158q46 -35 92 -35q58 0 93 38.5t38 103.5l-307 927v-866h-189v1604h189v-596z" />
    <glyph glyph-name="uni04C4" unicode="&#x4c4;" horiz-adv-x="768" 
d="M530 1251h187l-287 -512l311 -739q0 -177 -68.5 -276t-211.5 -99q-101 0 -168 49l49 158q46 -35 92 -35q62 0 96.5 44.5t34.5 131.5l-289 701v-674h-182v1251h182v-465z" />
    <glyph glyph-name="uni04C7" unicode="&#x4c7;" horiz-adv-x="849" 
d="M94 1604h189v-699h284v699h189v-1657q0 -140 -70.5 -231t-210.5 -91q-101 0 -168 49l49 158q46 -35 93 -35q59 0 88.5 39.5t29.5 110.5v778h-284v-725h-189v1604z" />
    <glyph glyph-name="uni04C8" unicode="&#x4c8;" horiz-adv-x="835" 
d="M94 1251h182v-514h283v514h182v-1304q0 -91 -28 -161.5t-92.5 -115.5t-159.5 -45q-101 0 -168 49l49 158q46 -35 92 -35q59 0 92 40t33 110v637h-283v-584h-182v1251z" />
    <glyph glyph-name="uni04CF" unicode="&#x4cf;" horiz-adv-x="370" 
d="M94 1624l182 45v-1669h-182v1624z" />
    <glyph glyph-name="uni04D8" unicode="&#x4d8;" horiz-adv-x="827" 
d="M418 1632q141 0 233 -89t92 -240v-1002q0 -152 -92.5 -241t-234.5 -89q-63 0 -120 19.5t-105.5 60t-77.5 113t-29 168.5q0 246 209 461q102 105 264 221v291q0 69 -39 107t-102 38q-66 0 -106 -38t-40 -107v-95l-182 -47v140q0 151 94 240t236 89zM422 152q63 0 99 41
t36 114v512q-104 -80 -164 -149q-123 -141 -123 -322q0 -102 43 -149t109 -47z" />
    <glyph glyph-name="uni04D9" unicode="&#x4d9;" horiz-adv-x="768" 
d="M84 305q0 56 13 108t32.5 93t55.5 84t67 73t82.5 68.5t87.5 62.5t96 62v102q0 63 -36.5 98.5t-94.5 35.5q-60 0 -96.5 -35.5t-36.5 -98.5v-79l-166 -43v129q0 138 87 220.5t218 82.5q129 0 215 -82.5t86 -220.5v-678q0 -138 -86 -220.5t-217 -82.5q-58 0 -110.5 17.5
t-97.5 54t-72 100.5t-27 149zM518 295v387q-61 -41 -100 -72.5t-79 -76t-59.5 -97t-19.5 -114.5q0 -87 37 -128.5t96 -41.5t92 38t33 105z" />
    <glyph glyph-name="uni04E8" unicode="&#x4e8;" horiz-adv-x="827" 
d="M743 1311v-1018q0 -147 -94 -234.5t-235 -87.5q-142 0 -236 87.5t-94 234.5v1018q0 147 94 234t236 87q141 0 235 -87t94 -234zM414 154q65 0 104 37t39 104v440h-287v-440q0 -67 39.5 -104t104.5 -37zM270 1309v-391h287v391q0 67 -39 104t-104 37t-104.5 -37
t-39.5 -104z" />
    <glyph glyph-name="uni04E9" unicode="&#x4e9;" horiz-adv-x="790" 
d="M707 965v-678q0 -137 -89.5 -220t-222.5 -83q-134 0 -222.5 82.5t-88.5 220.5v678q0 138 88.5 220.5t222.5 82.5q133 0 222.5 -83t89.5 -220zM395 164q60 0 96.5 35t36.5 98v272h-268v-272q0 -63 37.5 -98t97.5 -35zM260 954v-247h268v247q0 63 -36.5 98t-96.5 35
t-97.5 -35t-37.5 -98z" />
    <glyph glyph-name="uni04EE" unicode="&#x4ee;" horiz-adv-x="884" 
d="M111 1948h663v-138h-663v138zM41 1604h190l213 -820l226 820h182l-383 -1364q-39 -140 -104.5 -190t-200.5 -50h-105v180h88q78 0 111 24.5t53 98.5l41 152z" />
    <glyph glyph-name="uni04EF" unicode="&#x4ef;" horiz-adv-x="794" 
d="M51 1595h664v-137h-664v137zM39 1251h176l162 -817l205 817h174l-396 -1601h-178l107 430z" />
    <glyph glyph-name="uni0512" unicode="&#x512;" horiz-adv-x="995" 
d="M408 1604h493v-1657q0 -89 -28.5 -160t-93 -116.5t-158.5 -45.5q-103 0 -170 49l49 158q46 -35 96 -35q55 0 86 39.5t31 110.5v1474h-166q-8 -483 -76 -843q-32 -167 -70.5 -281t-86.5 -178.5t-100.5 -91.5t-119.5 -27h-53v182h39q26 0 47.5 7.5t49.5 34t52 71.5t50 126
t47 191q82 428 82 992z" />
    <glyph glyph-name="uni0513" unicode="&#x513;" horiz-adv-x="960" 
d="M393 1251h473v-1304q0 -91 -28 -161.5t-92.5 -115.5t-159.5 -45q-101 0 -168 49l49 158q46 -35 92 -35q59 0 92 40t33 110v1151h-156q-12 -384 -73 -647q-31 -134 -69.5 -224t-85 -139t-96 -68.5t-112.5 -19.5h-51v154h37q24 0 45 5.5t48.5 25.5t51 53.5t48 94.5
t44.5 144q78 344 78 774z" />
    <glyph glyph-name="uni1E62" unicode="&#x1e62;" horiz-adv-x="770" 
d="M391 1632q143 0 226 -86t83 -227v-57h-174v43q0 70 -37 110.5t-102 40.5q-72 0 -109.5 -48.5t-37.5 -123.5q0 -101 84 -221q23 -31 88.5 -117t120.5 -162t88 -129q48 -76 69 -144.5t21 -154.5q0 -182 -81 -283.5t-241 -101.5q-154 0 -246 89.5t-92 224.5v86l174 -45v-39
q0 -60 41.5 -102t110.5 -42q75 0 114 49t39 140q0 116 -79 239q-26 40 -125 166t-140 191q-120 189 -120 358q0 159 88.5 252.5t236.5 93.5zM377 -117q53 0 80.5 -31t27.5 -79q0 -50 -27.5 -82.5t-80.5 -32.5q-50 0 -77.5 32.5t-27.5 82.5q0 48 27.5 79t77.5 31z" />
    <glyph glyph-name="uni1E63" unicode="&#x1e63;" horiz-adv-x="747" 
d="M383 1268q149 0 225 -77t76 -198v-82h-166v58q0 62 -35 94.5t-102 32.5q-69 0 -104 -32t-35 -89q0 -71 75 -152q32 -35 139 -132t146 -146q88 -109 88 -252t-78.5 -226t-236.5 -83q-150 0 -235 77t-85 213v142l166 -43v-84q0 -61 39.5 -96t114.5 -35q145 0 145 141
q0 43 -15 77t-56 81q-48 55 -149.5 146.5t-135.5 131.5q-98 117 -98 250q0 135 85 209t232 74zM365 -117q53 0 80.5 -31t27.5 -79q0 -50 -27.5 -82.5t-80.5 -32.5q-50 0 -77.5 32.5t-27.5 82.5q0 48 27.5 79t77.5 31z" />
    <glyph glyph-name="Wgrave" unicode="&#x1e80;" horiz-adv-x="1181" 
d="M45 1604h180l99 -1129l174 1129h180l162 -1135l114 1135h183l-183 -1604h-188l-178 1208l-195 -1208h-182zM383 2025h199l180 -323h-162z" />
    <glyph glyph-name="wgrave" unicode="&#x1e81;" horiz-adv-x="1110" 
d="M45 1251h170l90 -882l164 882h168l151 -884l105 884h172l-170 -1251h-178l-166 944l-180 -944h-172zM346 1673h199l180 -323h-162z" />
    <glyph glyph-name="Wacute" unicode="&#x1e82;" horiz-adv-x="1181" 
d="M45 1604h180l99 -1129l174 1129h180l162 -1135l114 1135h183l-183 -1604h-188l-178 1208l-195 -1208h-182zM600 2025h199l-219 -323h-160z" />
    <glyph glyph-name="wacute" unicode="&#x1e83;" horiz-adv-x="1110" 
d="M45 1251h170l90 -882l164 882h168l151 -884l105 884h172l-170 -1251h-178l-166 944l-180 -944h-172zM563 1673h199l-219 -323h-160z" />
    <glyph glyph-name="Wdieresis" unicode="&#x1e84;" horiz-adv-x="1181" 
d="M45 1604h180l99 -1129l174 1129h180l162 -1135l114 1135h183l-183 -1604h-188l-178 1208l-195 -1208h-182zM758 2003q53 0 80.5 -31t27.5 -80q0 -50 -27.5 -82t-80.5 -32q-50 0 -77.5 32t-27.5 82q0 48 27.5 79.5t77.5 31.5zM416 2003q53 0 80.5 -31t27.5 -80
q0 -50 -27.5 -82t-80.5 -32q-50 0 -77.5 32t-27.5 82q0 48 27.5 79.5t77.5 31.5z" />
    <glyph glyph-name="wdieresis" unicode="&#x1e85;" horiz-adv-x="1110" 
d="M45 1251h170l90 -882l164 882h168l151 -884l105 884h172l-170 -1251h-178l-166 944l-180 -944h-172zM723 1651q53 0 80.5 -31t27.5 -80q0 -50 -27.5 -82.5t-80.5 -32.5q-50 0 -77.5 32.5t-27.5 82.5q0 48 27.5 79.5t77.5 31.5zM381 1651q53 0 80.5 -31t27.5 -80
q0 -50 -27.5 -82.5t-80.5 -32.5q-50 0 -77.5 32.5t-27.5 82.5q0 48 27.5 79.5t77.5 31.5z" />
    <glyph glyph-name="uni1EA0" unicode="&#x1ea0;" 
d="M307 1604h187l278 -1604h-182l-37 231h-299l-35 -231h-182zM401 1192l-122 -803h249zM401 -117q53 0 81 -31t28 -79q0 -50 -28 -82.5t-81 -32.5q-50 0 -77 32.5t-27 82.5q0 48 27 79t77 31z" />
    <glyph glyph-name="uni1EA1" unicode="&#x1ea1;" horiz-adv-x="786" 
d="M209 1004l-100 124q44 65 122 102.5t168 37.5q145 0 221 -92.5t76 -247.5v-928h-114l-33 70q-103 -86 -230 -86q-54 0 -99.5 17.5t-83.5 54t-59.5 101t-21.5 150.5q0 135 59.5 233t198.5 203q94 68 211 142v39q0 81 -38 128.5t-111 47.5q-52 0 -95.5 -25.5t-70.5 -70.5z
M373 156q80 0 151 71v482q-82 -52 -121 -82q-92 -71 -128.5 -140.5t-36.5 -152.5q0 -178 135 -178zM383 -117q53 0 81 -31t28 -79q0 -50 -28 -82.5t-81 -32.5q-50 0 -77 32.5t-27 82.5q0 48 27 79t77 31z" />
    <glyph glyph-name="uni1EA2" unicode="&#x1ea2;" 
d="M307 1604h187l278 -1604h-182l-37 231h-299l-35 -231h-182zM401 1192l-122 -803h249zM211 1870v33q0 159 199 159q95 0 142.5 -35t47.5 -98q0 -41 -17.5 -77t-41.5 -60.5t-48 -47t-39.5 -47t-13.5 -50.5h-82q-11 41 4.5 77t40.5 59.5t47.5 58.5t22.5 71q0 53 -76 53
q-43 0 -60.5 -15t-17.5 -48v-33h-108z" />
    <glyph glyph-name="uni1EA3" unicode="&#x1ea3;" horiz-adv-x="786" 
d="M209 1004l-100 124q44 65 122 102.5t168 37.5q145 0 221 -92.5t76 -247.5v-928h-114l-33 70q-103 -86 -230 -86q-54 0 -99.5 17.5t-83.5 54t-59.5 101t-21.5 150.5q0 135 59.5 233t198.5 203q94 68 211 142v39q0 81 -38 128.5t-111 47.5q-52 0 -95.5 -25.5t-70.5 -70.5z
M373 156q80 0 151 71v482q-82 -52 -121 -82q-92 -71 -128.5 -140.5t-36.5 -152.5q0 -178 135 -178zM205 1518v32q0 160 198 160q95 0 143 -35t48 -98q0 -41 -17.5 -77t-41.5 -61t-48 -47.5t-39.5 -47t-13.5 -50.5h-82q-9 39 -1 63.5t27 50.5t39 46t35 48.5t15 58.5
q0 53 -76 53q-43 0 -60.5 -15.5t-17.5 -48.5v-32h-108z" />
    <glyph glyph-name="uni1EA4" unicode="&#x1ea4;" 
d="M307 1604h187l278 -1604h-182l-37 231h-299l-35 -231h-182zM401 1192l-122 -803h249zM821 2230h199l-219 -323h-160zM305 2025h197l203 -323h-154l-148 235l-147 -235h-152z" />
    <glyph glyph-name="uni1EA5" unicode="&#x1ea5;" horiz-adv-x="786" 
d="M209 1004l-100 124q44 65 122 102.5t168 37.5q145 0 221 -92.5t76 -247.5v-928h-114l-33 70q-103 -86 -230 -86q-54 0 -99.5 17.5t-83.5 54t-59.5 101t-21.5 150.5q0 135 59.5 233t198.5 203q94 68 211 142v39q0 81 -38 128.5t-111 47.5q-52 0 -95.5 -25.5t-70.5 -70.5z
M373 156q80 0 151 71v482q-82 -52 -121 -82q-92 -71 -128.5 -140.5t-36.5 -152.5q0 -178 135 -178zM381 2025h199l-220 -323h-159zM293 1673h196l203 -323h-153l-148 235l-147 -235h-152z" />
    <glyph glyph-name="uni1EA6" unicode="&#x1ea6;" 
d="M307 1604h187l278 -1604h-182l-37 231h-299l-35 -231h-182zM401 1192l-122 -803h249zM-227 2230h198l181 -323h-162zM305 2025h197l203 -323h-154l-148 235l-147 -235h-152z" />
    <glyph glyph-name="uni1EA7" unicode="&#x1ea7;" horiz-adv-x="786" 
d="M209 1004l-100 124q44 65 122 102.5t168 37.5q145 0 221 -92.5t76 -247.5v-928h-114l-33 70q-103 -86 -230 -86q-54 0 -99.5 17.5t-83.5 54t-59.5 101t-21.5 150.5q0 135 59.5 233t198.5 203q94 68 211 142v39q0 81 -38 128.5t-111 47.5q-52 0 -95.5 -25.5t-70.5 -70.5z
M373 156q80 0 151 71v482q-82 -52 -121 -82q-92 -71 -128.5 -140.5t-36.5 -152.5q0 -178 135 -178zM203 2025h198l181 -323h-162zM293 1673h196l203 -323h-153l-148 235l-147 -235h-152z" />
    <glyph glyph-name="uni1EA8" unicode="&#x1ea8;" 
d="M307 1604h187l278 -1604h-182l-37 231h-299l-35 -231h-182zM401 1192l-122 -803h249zM305 2025h197l203 -323h-154l-148 235l-147 -235h-152zM608 2013v33q0 160 199 160q95 0 142.5 -35t47.5 -98q0 -41 -17 -77t-41.5 -61t-48 -47.5t-39 -47t-13.5 -50.5h-82
q-9 39 -1 63.5t27 50.5t38.5 45.5t34.5 48t15 58.5q0 27 -17.5 40t-57.5 13q-43 0 -60.5 -15t-17.5 -48v-33h-109z" />
    <glyph glyph-name="uni1EA9" unicode="&#x1ea9;" horiz-adv-x="786" 
d="M209 1004l-100 124q44 65 122 102.5t168 37.5q145 0 221 -92.5t76 -247.5v-928h-114l-33 70q-103 -86 -230 -86q-54 0 -99.5 17.5t-83.5 54t-59.5 101t-21.5 150.5q0 135 59.5 233t198.5 203q94 68 211 142v39q0 81 -38 128.5t-111 47.5q-52 0 -95.5 -25.5t-70.5 -70.5z
M373 156q80 0 151 71v482q-82 -52 -121 -82q-92 -71 -128.5 -140.5t-36.5 -152.5q0 -178 135 -178zM293 1673h196l203 -323h-153l-148 235l-147 -235h-152zM449 1870v33q0 159 198 159q95 0 143 -35t48 -98q0 -41 -17.5 -77t-41.5 -60.5t-48 -47t-39.5 -47t-13.5 -50.5h-82
q-11 41 4.5 77t40.5 59.5t47.5 58.5t22.5 71q0 53 -76 53q-43 0 -60.5 -15t-17.5 -48v-33h-108z" />
    <glyph glyph-name="uni1EAA" unicode="&#x1eaa;" 
d="M307 1604h187l278 -1604h-182l-37 231h-299l-35 -231h-182zM401 1192l-122 -803h249zM129 2144l-74 66q38 78 89 116.5t124 38.5q55 0 103 -24.5t90.5 -49t85.5 -24.5q88 0 135 100l74 -65q-77 -158 -207 -158q-52 0 -100 25t-93.5 49.5t-91.5 24.5q-89 0 -135 -99z
M305 2025h197l203 -323h-154l-148 235l-147 -235h-152z" />
    <glyph glyph-name="uni1EAB" unicode="&#x1eab;" horiz-adv-x="786" 
d="M209 1004l-100 124q44 65 122 102.5t168 37.5q145 0 221 -92.5t76 -247.5v-928h-114l-33 70q-103 -86 -230 -86q-54 0 -99.5 17.5t-83.5 54t-59.5 101t-21.5 150.5q0 135 59.5 233t198.5 203q94 68 211 142v39q0 81 -38 128.5t-111 47.5q-52 0 -95.5 -25.5t-70.5 -70.5z
M373 156q80 0 151 71v482q-82 -52 -121 -82q-92 -71 -128.5 -140.5t-36.5 -152.5q0 -178 135 -178zM117 1776l-74 65q76 156 213 156q44 0 84 -15.5t65.5 -34t60.5 -34t69 -15.5q87 0 135 101l73 -66q-77 -157 -206 -157q-41 0 -80.5 15.5t-66.5 33.5t-64 33.5t-74 15.5
q-90 0 -135 -98zM293 1673h196l203 -323h-153l-148 235l-147 -235h-152z" />
    <glyph glyph-name="uni1EAC" unicode="&#x1eac;" 
d="M307 1604h187l278 -1604h-182l-37 231h-299l-35 -231h-182zM401 1192l-122 -803h249zM399 -117q53 0 81 -31t28 -79q0 -50 -28 -82.5t-81 -32.5q-50 0 -77 32.5t-27 82.5q0 48 27 79t77 31zM305 2025h197l203 -323h-154l-148 235l-147 -235h-152z" />
    <glyph glyph-name="uni1EAD" unicode="&#x1ead;" horiz-adv-x="786" 
d="M209 1004l-100 124q44 65 122 102.5t168 37.5q145 0 221 -92.5t76 -247.5v-928h-114l-33 70q-103 -86 -230 -86q-54 0 -99.5 17.5t-83.5 54t-59.5 101t-21.5 150.5q0 135 59.5 233t198.5 203q94 68 211 142v39q0 81 -38 128.5t-111 47.5q-52 0 -95.5 -25.5t-70.5 -70.5z
M373 156q80 0 151 71v482q-82 -52 -121 -82q-92 -71 -128.5 -140.5t-36.5 -152.5q0 -178 135 -178zM389 -117q53 0 81 -31t28 -79q0 -50 -28 -82.5t-81 -32.5q-50 0 -77 32.5t-27 82.5q0 48 27 79t77 31zM293 1673h196l203 -323h-153l-148 235l-147 -235h-152z" />
    <glyph glyph-name="uni1EAE" unicode="&#x1eae;" 
d="M307 1604h187l278 -1604h-182l-37 231h-299l-35 -231h-182zM401 1192l-122 -803h249zM414 2435h198l-219 -324h-160zM143 2025h136q6 -112 37.5 -161t86.5 -49q114 0 125 210h134q-3 -64 -19.5 -119t-46.5 -100.5t-79.5 -71.5t-113.5 -26t-114 26.5t-80 72t-46.5 100.5
t-19.5 118z" />
    <glyph glyph-name="uni1EAF" unicode="&#x1eaf;" horiz-adv-x="786" 
d="M209 1004l-100 124q44 65 122 102.5t168 37.5q145 0 221 -92.5t76 -247.5v-928h-114l-33 70q-103 -86 -230 -86q-54 0 -99.5 17.5t-83.5 54t-59.5 101t-21.5 150.5q0 135 59.5 233t198.5 203q94 68 211 142v39q0 81 -38 128.5t-111 47.5q-52 0 -95.5 -25.5t-70.5 -70.5z
M373 156q80 0 151 71v482q-82 -52 -121 -82q-92 -71 -128.5 -140.5t-36.5 -152.5q0 -178 135 -178zM401 2025h199l-219 -323h-160zM133 1673h135q11 -211 125 -211t125 211h133q-7 -136 -71 -226.5t-187 -90.5q-64 0 -114 26.5t-80 72t-46.5 100.5t-19.5 118z" />
    <glyph glyph-name="uni1EB0" unicode="&#x1eb0;" 
d="M307 1604h187l278 -1604h-182l-37 231h-299l-35 -231h-182zM401 1192l-122 -803h249zM143 2025h136q6 -112 37.5 -161t86.5 -49q114 0 125 210h134q-3 -64 -19.5 -119t-46.5 -100.5t-79.5 -71.5t-113.5 -26t-114 26.5t-80 72t-46.5 100.5t-19.5 118zM199 2435h198
l181 -324h-162z" />
    <glyph glyph-name="uni1EB1" unicode="&#x1eb1;" horiz-adv-x="786" 
d="M209 1004l-100 124q44 65 122 102.5t168 37.5q145 0 221 -92.5t76 -247.5v-928h-114l-33 70q-103 -86 -230 -86q-54 0 -99.5 17.5t-83.5 54t-59.5 101t-21.5 150.5q0 135 59.5 233t198.5 203q94 68 211 142v39q0 81 -38 128.5t-111 47.5q-52 0 -95.5 -25.5t-70.5 -70.5z
M373 156q80 0 151 71v482q-82 -52 -121 -82q-92 -71 -128.5 -140.5t-36.5 -152.5q0 -178 135 -178zM133 1673h135q11 -211 125 -211t125 211h133q-7 -136 -71 -226.5t-187 -90.5q-64 0 -114 26.5t-80 72t-46.5 100.5t-19.5 118zM184 2025h199l180 -323h-162z" />
    <glyph glyph-name="uni1EB2" unicode="&#x1eb2;" 
d="M307 1604h187l278 -1604h-182l-37 231h-299l-35 -231h-182zM401 1192l-122 -803h249zM143 2025h136q6 -112 37.5 -161t86.5 -49q114 0 125 210h134q-3 -64 -19.5 -119t-46.5 -100.5t-79.5 -71.5t-113.5 -26t-114 26.5t-80 72t-46.5 100.5t-19.5 118zM211 2279v33
q0 160 199 160q95 0 142.5 -35t47.5 -98q0 -41 -17.5 -77t-41.5 -61t-48 -47.5t-39.5 -47t-13.5 -50.5h-82q-11 41 4.5 77t40.5 59.5t47.5 58.5t22.5 71q0 54 -76 54q-43 0 -60.5 -15.5t-17.5 -48.5v-33h-108z" />
    <glyph glyph-name="uni1EB3" unicode="&#x1eb3;" horiz-adv-x="786" 
d="M209 1004l-100 124q44 65 122 102.5t168 37.5q145 0 221 -92.5t76 -247.5v-928h-114l-33 70q-103 -86 -230 -86q-54 0 -99.5 17.5t-83.5 54t-59.5 101t-21.5 150.5q0 135 59.5 233t198.5 203q94 68 211 142v39q0 81 -38 128.5t-111 47.5q-52 0 -95.5 -25.5t-70.5 -70.5z
M373 156q80 0 151 71v482q-82 -52 -121 -82q-92 -71 -128.5 -140.5t-36.5 -152.5q0 -178 135 -178zM133 1673h135q11 -211 125 -211t125 211h133q-7 -136 -71 -226.5t-187 -90.5q-64 0 -114 26.5t-80 72t-46.5 100.5t-19.5 118zM201 1870v33q0 159 198 159q95 0 143 -35
t48 -98q0 -41 -17.5 -77t-41.5 -60.5t-48 -47t-39.5 -47t-13.5 -50.5h-82q-11 41 4.5 77t40.5 59.5t47.5 58.5t22.5 71q0 53 -76 53q-43 0 -60.5 -15t-17.5 -48v-33h-108z" />
    <glyph glyph-name="uni1EB4" unicode="&#x1eb4;" 
d="M307 1604h187l278 -1604h-182l-37 231h-299l-35 -231h-182zM401 1192l-122 -803h249zM143 2025h136q6 -112 37.5 -161t86.5 -49q114 0 125 210h134q-3 -64 -19.5 -119t-46.5 -100.5t-79.5 -71.5t-113.5 -26t-114 26.5t-80 72t-46.5 100.5t-19.5 118zM129 2185l-74 66
q38 78 89 116.5t124 38.5q55 0 103 -24.5t90.5 -49t85.5 -24.5q88 0 135 100l74 -65q-77 -158 -207 -158q-41 0 -80.5 15.5t-66.5 34t-64 34t-74 15.5q-89 0 -135 -99z" />
    <glyph glyph-name="uni1EB5" unicode="&#x1eb5;" horiz-adv-x="786" 
d="M209 1004l-100 124q44 65 122 102.5t168 37.5q145 0 221 -92.5t76 -247.5v-928h-114l-33 70q-103 -86 -230 -86q-54 0 -99.5 17.5t-83.5 54t-59.5 101t-21.5 150.5q0 135 59.5 233t198.5 203q94 68 211 142v39q0 81 -38 128.5t-111 47.5q-52 0 -95.5 -25.5t-70.5 -70.5z
M373 156q80 0 151 71v482q-82 -52 -121 -82q-92 -71 -128.5 -140.5t-36.5 -152.5q0 -178 135 -178zM133 1673h135q11 -211 125 -211t125 211h133q-7 -136 -71 -226.5t-187 -90.5q-64 0 -114 26.5t-80 72t-46.5 100.5t-19.5 118zM117 1776l-74 65q76 156 213 156
q44 0 84 -15.5t65.5 -34t60.5 -34t69 -15.5q87 0 135 101l73 -66q-77 -157 -206 -157q-41 0 -80.5 15.5t-66.5 33.5t-64 33.5t-74 15.5q-90 0 -135 -98z" />
    <glyph glyph-name="uni1EB6" unicode="&#x1eb6;" 
d="M307 1604h187l278 -1604h-182l-37 231h-299l-35 -231h-182zM401 1192l-122 -803h249zM143 2025h136q6 -112 37.5 -161t86.5 -49q114 0 125 210h134q-3 -64 -19.5 -119t-46.5 -100.5t-79.5 -71.5t-113.5 -26t-114 26.5t-80 72t-46.5 100.5t-19.5 118zM401 -117
q53 0 81 -31t28 -79q0 -50 -28 -82.5t-81 -32.5q-50 0 -77 32.5t-27 82.5q0 48 27 79t77 31z" />
    <glyph glyph-name="uni1EB7" unicode="&#x1eb7;" horiz-adv-x="786" 
d="M209 1004l-100 124q44 65 122 102.5t168 37.5q145 0 221 -92.5t76 -247.5v-928h-114l-33 70q-103 -86 -230 -86q-54 0 -99.5 17.5t-83.5 54t-59.5 101t-21.5 150.5q0 135 59.5 233t198.5 203q94 68 211 142v39q0 81 -38 128.5t-111 47.5q-52 0 -95.5 -25.5t-70.5 -70.5z
M373 156q80 0 151 71v482q-82 -52 -121 -82q-92 -71 -128.5 -140.5t-36.5 -152.5q0 -178 135 -178zM133 1673h135q11 -211 125 -211t125 211h133q-7 -136 -71 -226.5t-187 -90.5q-64 0 -114 26.5t-80 72t-46.5 100.5t-19.5 118zM389 -117q53 0 81 -31t28 -79
q0 -50 -28 -82.5t-81 -32.5q-50 0 -77 32.5t-27 82.5q0 48 27 79t77 31z" />
    <glyph glyph-name="uni1EB8" unicode="&#x1eb8;" horiz-adv-x="684" 
d="M94 1604h531v-183h-342v-503h241v-183h-241v-553h342v-182h-531v1604zM340 -117q53 0 81 -31t28 -79q0 -50 -28 -82.5t-81 -32.5q-50 0 -77 32.5t-27 82.5q0 48 27 79t77 31z" />
    <glyph glyph-name="uni1EB9" unicode="&#x1eb9;" horiz-adv-x="768" 
d="M494 561q-94 -81 -234 -168v-100q0 -63 36 -98t95 -35q60 0 96.5 35t36.5 98v80l166 43v-129q0 -138 -87 -220.5t-218 -82.5q-129 0 -215 82.5t-86 220.5v678q0 138 86 220.5t217 82.5q59 0 110.5 -17t97.5 -53.5t72.5 -103t26.5 -156.5q0 -114 -47 -202t-153 -175z
M260 956v-387q91 60 141 107q63 58 90 116.5t27 133.5q0 91 -37 132.5t-96 41.5t-92 -38.5t-33 -105.5zM383 -117q53 0 81 -31t28 -79q0 -50 -28 -82.5t-81 -32.5q-50 0 -77 32.5t-27 82.5q0 48 27 79t77 31z" />
    <glyph glyph-name="uni1EBA" unicode="&#x1eba;" horiz-adv-x="684" 
d="M94 1604h531v-183h-342v-503h241v-183h-241v-553h342v-182h-531v1604zM164 1870v33q0 159 198 159q95 0 143 -35t48 -98q0 -41 -17.5 -77t-41.5 -60.5t-48 -47t-39.5 -47t-13.5 -50.5h-82q-11 41 4.5 77t40.5 59.5t47.5 58.5t22.5 71q0 53 -76 53q-43 0 -60.5 -15
t-17.5 -48v-33h-108z" />
    <glyph glyph-name="uni1EBB" unicode="&#x1ebb;" horiz-adv-x="768" 
d="M494 561q-94 -81 -234 -168v-100q0 -63 36 -98t95 -35q60 0 96.5 35t36.5 98v80l166 43v-129q0 -138 -87 -220.5t-218 -82.5q-129 0 -215 82.5t-86 220.5v678q0 138 86 220.5t217 82.5q59 0 110.5 -17t97.5 -53.5t72.5 -103t26.5 -156.5q0 -114 -47 -202t-153 -175z
M260 956v-387q91 60 141 107q63 58 90 116.5t27 133.5q0 91 -37 132.5t-96 41.5t-92 -38.5t-33 -105.5zM193 1518v32q0 160 198 160q95 0 143 -35t48 -98q0 -41 -17.5 -77t-41.5 -61t-48 -47.5t-39.5 -47t-13.5 -50.5h-82q-9 39 -1 63.5t27 50.5t39 46t35 48.5t15 58.5
q0 53 -76 53q-43 0 -60.5 -15.5t-17.5 -48.5v-32h-108z" />
    <glyph glyph-name="uni1EBC" unicode="&#x1ebc;" horiz-adv-x="684" 
d="M94 1604h531v-183h-342v-503h241v-183h-241v-553h342v-182h-531v1604zM86 1776l-74 65q76 156 213 156q44 0 84 -15.5t65.5 -34t60.5 -34t69 -15.5q87 0 135 101l74 -66q-77 -157 -207 -157q-41 0 -80.5 15.5t-66.5 33.5t-64 33.5t-74 15.5q-90 0 -135 -98z" />
    <glyph glyph-name="uni1EBD" unicode="&#x1ebd;" horiz-adv-x="768" 
d="M494 561q-94 -81 -234 -168v-100q0 -63 36 -98t95 -35q60 0 96.5 35t36.5 98v80l166 43v-129q0 -138 -87 -220.5t-218 -82.5q-129 0 -215 82.5t-86 220.5v678q0 138 86 220.5t217 82.5q59 0 110.5 -17t97.5 -53.5t72.5 -103t26.5 -156.5q0 -114 -47 -202t-153 -175z
M260 956v-387q91 60 141 107q63 58 90 116.5t27 133.5q0 91 -37 132.5t-96 41.5t-92 -38.5t-33 -105.5zM109 1423l-74 66q76 156 213 156q44 0 84 -15.5t65 -34t60 -34t69 -15.5q88 0 136 101l73 -66q-77 -158 -207 -158q-41 0 -80.5 15.5t-66 34t-63.5 34t-74 15.5
q-89 0 -135 -99z" />
    <glyph glyph-name="uni1EBE" unicode="&#x1ebe;" horiz-adv-x="684" 
d="M94 1604h531v-183h-342v-503h241v-183h-241v-553h342v-182h-531v1604zM797 2230h198l-219 -323h-160zM264 2025h197l203 -323h-154l-148 235l-147 -235h-152z" />
    <glyph glyph-name="uni1EBF" unicode="&#x1ebf;" horiz-adv-x="768" 
d="M494 561q-94 -81 -234 -168v-100q0 -63 36 -98t95 -35q60 0 96.5 35t36.5 98v80l166 43v-129q0 -138 -87 -220.5t-218 -82.5q-129 0 -215 82.5t-86 220.5v678q0 138 86 220.5t217 82.5q59 0 110.5 -17t97.5 -53.5t72.5 -103t26.5 -156.5q0 -114 -47 -202t-153 -175z
M260 956v-387q91 60 141 107q63 58 90 116.5t27 133.5q0 91 -37 132.5t-96 41.5t-92 -38.5t-33 -105.5zM375 2025h198l-219 -323h-159zM285 1673h196l203 -323h-154l-147 235l-147 -235h-152z" />
    <glyph glyph-name="uni1EC0" unicode="&#x1ec0;" horiz-adv-x="684" 
d="M94 1604h531v-183h-342v-503h241v-183h-241v-553h342v-182h-531v1604zM-268 2230h198l181 -323h-162zM264 2025h197l203 -323h-154l-148 235l-147 -235h-152z" />
    <glyph glyph-name="uni1EC1" unicode="&#x1ec1;" horiz-adv-x="768" 
d="M494 561q-94 -81 -234 -168v-100q0 -63 36 -98t95 -35q60 0 96.5 35t36.5 98v80l166 43v-129q0 -138 -87 -220.5t-218 -82.5q-129 0 -215 82.5t-86 220.5v678q0 138 86 220.5t217 82.5q59 0 110.5 -17t97.5 -53.5t72.5 -103t26.5 -156.5q0 -114 -47 -202t-153 -175z
M260 956v-387q91 60 141 107q63 58 90 116.5t27 133.5q0 91 -37 132.5t-96 41.5t-92 -38.5t-33 -105.5zM195 2025h198l180 -323h-161zM285 1673h196l203 -323h-154l-147 235l-147 -235h-152z" />
    <glyph glyph-name="uni1EC2" unicode="&#x1ec2;" horiz-adv-x="684" 
d="M94 1604h531v-183h-342v-503h241v-183h-241v-553h342v-182h-531v1604zM264 2025h197l203 -323h-154l-148 235l-147 -235h-152zM565 2013v33q0 160 199 160q95 0 142.5 -35t47.5 -98q0 -41 -17 -77t-41.5 -61t-48 -47.5t-39 -47t-13.5 -50.5h-82q-9 39 -1 63.5t27 50.5
t38.5 45.5t34.5 48t15 58.5q0 27 -17.5 40t-57.5 13q-43 0 -60.5 -15t-17.5 -48v-33h-109z" />
    <glyph glyph-name="uni1EC3" unicode="&#x1ec3;" horiz-adv-x="768" 
d="M494 561q-94 -81 -234 -168v-100q0 -63 36 -98t95 -35q60 0 96.5 35t36.5 98v80l166 43v-129q0 -138 -87 -220.5t-218 -82.5q-129 0 -215 82.5t-86 220.5v678q0 138 86 220.5t217 82.5q59 0 110.5 -17t97.5 -53.5t72.5 -103t26.5 -156.5q0 -114 -47 -202t-153 -175z
M260 956v-387q91 60 141 107q63 58 90 116.5t27 133.5q0 91 -37 132.5t-96 41.5t-92 -38.5t-33 -105.5zM285 1673h196l203 -323h-154l-147 235l-147 -235h-152zM442 1870v33q0 159 199 159q95 0 142.5 -35t47.5 -98q0 -41 -17 -77t-41.5 -60.5t-48 -47t-39 -47t-13.5 -50.5
h-82q-11 41 4.5 77t40.5 59.5t47.5 58.5t22.5 71q0 53 -76 53q-43 0 -60.5 -15t-17.5 -48v-33h-109z" />
    <glyph glyph-name="uni1EC4" unicode="&#x1ec4;" horiz-adv-x="684" 
d="M94 1604h531v-183h-342v-503h241v-183h-241v-553h342v-182h-531v1604zM66 2185l-74 66q38 78 89 116.5t124 38.5q44 0 84 -15.5t65 -33.5t60 -33.5t69 -15.5q88 0 135 100l74 -65q-77 -158 -207 -158q-41 0 -80.5 15.5t-66 34t-63.5 34t-74 15.5q-89 0 -135 -99z
M264 2025h197l203 -323h-154l-148 235l-147 -235h-152z" />
    <glyph glyph-name="uni1EC5" unicode="&#x1ec5;" horiz-adv-x="768" 
d="M494 561q-94 -81 -234 -168v-100q0 -63 36 -98t95 -35q60 0 96.5 35t36.5 98v80l166 43v-129q0 -138 -87 -220.5t-218 -82.5q-129 0 -215 82.5t-86 220.5v678q0 138 86 220.5t217 82.5q59 0 110.5 -17t97.5 -53.5t72.5 -103t26.5 -156.5q0 -114 -47 -202t-153 -175z
M260 956v-387q91 60 141 107q63 58 90 116.5t27 133.5q0 91 -37 132.5t-96 41.5t-92 -38.5t-33 -105.5zM109 1776l-74 65q76 156 213 156q44 0 84 -15.5t65 -34t60 -34t69 -15.5q88 0 136 101l73 -66q-77 -157 -207 -157q-52 0 -99.5 24.5t-93 49t-91.5 24.5q-90 0 -135 -98
zM285 1673h196l203 -323h-154l-147 235l-147 -235h-152z" />
    <glyph glyph-name="uni1EC6" unicode="&#x1ec6;" horiz-adv-x="684" 
d="M94 1604h531v-183h-342v-503h241v-183h-241v-553h342v-182h-531v1604zM334 -117q53 0 80.5 -31t27.5 -79q0 -50 -27.5 -82.5t-80.5 -32.5q-50 0 -77.5 32.5t-27.5 82.5q0 48 27.5 79t77.5 31zM264 2025h197l203 -323h-154l-148 235l-147 -235h-152z" />
    <glyph glyph-name="uni1EC7" unicode="&#x1ec7;" horiz-adv-x="768" 
d="M494 561q-94 -81 -234 -168v-100q0 -63 36 -98t95 -35q60 0 96.5 35t36.5 98v80l166 43v-129q0 -138 -87 -220.5t-218 -82.5q-129 0 -215 82.5t-86 220.5v678q0 138 86 220.5t217 82.5q59 0 110.5 -17t97.5 -53.5t72.5 -103t26.5 -156.5q0 -114 -47 -202t-153 -175z
M260 956v-387q91 60 141 107q63 58 90 116.5t27 133.5q0 91 -37 132.5t-96 41.5t-92 -38.5t-33 -105.5zM354 -117q53 0 81 -31t28 -79q0 -50 -28 -82.5t-81 -32.5q-50 0 -77 32.5t-27 82.5q0 48 27 79t77 31zM285 1673h196l203 -323h-154l-147 235l-147 -235h-152z" />
    <glyph glyph-name="uni1EC8" unicode="&#x1ec8;" horiz-adv-x="376" 
d="M94 1604h189v-1604h-189v1604zM-4 1870v33q0 159 199 159q95 0 142.5 -35t47.5 -98q0 -41 -17.5 -77t-41.5 -60.5t-48 -47t-39.5 -47t-13.5 -50.5h-82q-11 41 4.5 77t40.5 59.5t47.5 58.5t22.5 71q0 53 -76 53q-43 0 -60.5 -15t-17.5 -48v-33h-108z" />
    <glyph glyph-name="uni1EC9" unicode="&#x1ec9;" horiz-adv-x="389" 
d="M102 1251h183v-1251h-183v1251zM2 1518v32q0 160 199 160q95 0 142.5 -35t47.5 -98q0 -41 -17.5 -77t-41.5 -61t-48 -47.5t-39.5 -47t-13.5 -50.5h-81q-9 39 -1 63.5t27 50.5t38.5 46t34.5 48.5t15 58.5q0 53 -76 53q-43 0 -60 -15.5t-17 -48.5v-32h-109z" />
    <glyph glyph-name="uni1ECA" unicode="&#x1eca;" horiz-adv-x="376" 
d="M94 1604h189v-1604h-189v1604zM186 -117q53 0 81 -31t28 -79q0 -50 -28 -82.5t-81 -32.5q-50 0 -77 32.5t-27 82.5q0 48 27 79t77 31z" />
    <glyph glyph-name="uni1ECB" unicode="&#x1ecb;" horiz-adv-x="370" 
d="M94 1251h182v-1251h-182v1251zM184 -117q53 0 81 -31t28 -79q0 -50 -28 -82.5t-81 -32.5q-50 0 -77 32.5t-27 82.5q0 48 27 79t77 31zM184 1651q53 0 81 -31.5t28 -79.5q0 -50 -28 -82.5t-81 -32.5q-50 0 -77 32.5t-27 82.5q0 48 27 79.5t77 31.5z" />
    <glyph glyph-name="uni1ECC" unicode="&#x1ecc;" horiz-adv-x="827" 
d="M743 1311v-1018q0 -147 -94 -234.5t-235 -87.5q-142 0 -236 87.5t-94 234.5v1018q0 147 94 234t236 87q141 0 235 -87t94 -234zM270 1309v-1014q0 -67 39.5 -104t104.5 -37t104 37t39 104v1014q0 67 -39 104t-104 37t-104.5 -37t-39.5 -104zM412 -117q53 0 80.5 -31
t27.5 -79q0 -50 -27.5 -82.5t-80.5 -32.5q-50 0 -77.5 32.5t-27.5 82.5q0 48 27.5 79t77.5 31z" />
    <glyph glyph-name="uni1ECD" unicode="&#x1ecd;" horiz-adv-x="790" 
d="M707 965v-678q0 -137 -89.5 -220t-222.5 -83q-134 0 -222.5 82.5t-88.5 220.5v678q0 138 88.5 220.5t222.5 82.5q133 0 222.5 -83t89.5 -220zM260 954v-657q0 -63 37.5 -98t97.5 -35t96.5 35t36.5 98v657q0 63 -36.5 98t-96.5 35t-97.5 -35t-37.5 -98zM395 -117
q53 0 81 -31t28 -79q0 -50 -28 -82.5t-81 -32.5q-50 0 -77 32.5t-27 82.5q0 48 27 79t77 31z" />
    <glyph glyph-name="uni1ECE" unicode="&#x1ece;" horiz-adv-x="827" 
d="M743 1311v-1018q0 -147 -94 -234.5t-235 -87.5q-142 0 -236 87.5t-94 234.5v1018q0 147 94 234t236 87q141 0 235 -87t94 -234zM270 1309v-1014q0 -67 39.5 -104t104.5 -37t104 37t39 104v1014q0 67 -39 104t-104 37t-104.5 -37t-39.5 -104zM221 1870v33q0 159 199 159
q95 0 142.5 -35t47.5 -98q0 -41 -17 -77t-41.5 -60.5t-48 -47t-39 -47t-13.5 -50.5h-82q-9 39 -1 63.5t27 50.5t38.5 45.5t34.5 48t15 58.5q0 27 -17.5 40t-57.5 13q-43 0 -60.5 -15t-17.5 -48v-33h-109z" />
    <glyph glyph-name="uni1ECF" unicode="&#x1ecf;" horiz-adv-x="790" 
d="M707 965v-678q0 -137 -89.5 -220t-222.5 -83q-134 0 -222.5 82.5t-88.5 220.5v678q0 138 88.5 220.5t222.5 82.5q133 0 222.5 -83t89.5 -220zM260 954v-657q0 -63 37.5 -98t97.5 -35t96.5 35t36.5 98v657q0 63 -36.5 98t-96.5 35t-97.5 -35t-37.5 -98zM205 1518v32
q0 160 198 160q95 0 143 -35t48 -98q0 -41 -17.5 -77t-41.5 -61t-48 -47.5t-39.5 -47t-13.5 -50.5h-82q-9 39 -1 63.5t27 50.5t39 46t35 48.5t15 58.5q0 53 -76 53q-43 0 -60.5 -15.5t-17.5 -48.5v-32h-108z" />
    <glyph glyph-name="uni1ED0" unicode="&#x1ed0;" horiz-adv-x="827" 
d="M743 1311v-1018q0 -147 -94 -234.5t-235 -87.5q-142 0 -236 87.5t-94 234.5v1018q0 147 94 234t236 87q141 0 235 -87t94 -234zM270 1309v-1014q0 -67 39.5 -104t104.5 -37t104 37t39 104v1014q0 67 -39 104t-104 37t-104.5 -37t-39.5 -104zM848 2230h199l-220 -323h-159
zM313 2025h197l203 -323h-154l-147 235l-148 -235h-151z" />
    <glyph glyph-name="uni1ED1" unicode="&#x1ed1;" horiz-adv-x="790" 
d="M707 965v-678q0 -137 -89.5 -220t-222.5 -83q-134 0 -222.5 82.5t-88.5 220.5v678q0 138 88.5 220.5t222.5 82.5q133 0 222.5 -83t89.5 -220zM260 954v-657q0 -63 37.5 -98t97.5 -35t96.5 35t36.5 98v657q0 63 -36.5 98t-96.5 35t-97.5 -35t-37.5 -98zM385 2025h199
l-219 -323h-160zM295 1673h197l202 -323h-153l-148 235l-147 -235h-152z" />
    <glyph glyph-name="uni1ED2" unicode="&#x1ed2;" horiz-adv-x="827" 
d="M743 1311v-1018q0 -147 -94 -234.5t-235 -87.5q-142 0 -236 87.5t-94 234.5v1018q0 147 94 234t236 87q141 0 235 -87t94 -234zM270 1309v-1014q0 -67 39.5 -104t104.5 -37t104 37t39 104v1014q0 67 -39 104t-104 37t-104.5 -37t-39.5 -104zM-219 2230h199l180 -323h-162
zM313 2025h197l203 -323h-154l-147 235l-148 -235h-151z" />
    <glyph glyph-name="uni1ED3" unicode="&#x1ed3;" horiz-adv-x="790" 
d="M707 965v-678q0 -137 -89.5 -220t-222.5 -83q-134 0 -222.5 82.5t-88.5 220.5v678q0 138 88.5 220.5t222.5 82.5q133 0 222.5 -83t89.5 -220zM260 954v-657q0 -63 37.5 -98t97.5 -35t96.5 35t36.5 98v657q0 63 -36.5 98t-96.5 35t-97.5 -35t-37.5 -98zM205 2025h198
l181 -323h-162zM295 1673h197l202 -323h-153l-148 235l-147 -235h-152z" />
    <glyph glyph-name="uni1ED4" unicode="&#x1ed4;" horiz-adv-x="827" 
d="M743 1311v-1018q0 -147 -94 -234.5t-235 -87.5q-142 0 -236 87.5t-94 234.5v1018q0 147 94 234t236 87q141 0 235 -87t94 -234zM270 1309v-1014q0 -67 39.5 -104t104.5 -37t104 37t39 104v1014q0 67 -39 104t-104 37t-104.5 -37t-39.5 -104zM313 2025h197l203 -323h-154
l-147 235l-148 -235h-151zM594 2013v33q0 160 199 160q95 0 142.5 -35t47.5 -98q0 -41 -17.5 -77t-41.5 -61t-48 -47.5t-39.5 -47t-13.5 -50.5h-82q-11 41 4.5 77t40.5 59.5t47.5 58.5t22.5 71q0 53 -76 53q-43 0 -60.5 -15t-17.5 -48v-33h-108z" />
    <glyph glyph-name="uni1ED5" unicode="&#x1ed5;" horiz-adv-x="790" 
d="M707 965v-678q0 -137 -89.5 -220t-222.5 -83q-134 0 -222.5 82.5t-88.5 220.5v678q0 138 88.5 220.5t222.5 82.5q133 0 222.5 -83t89.5 -220zM260 954v-657q0 -63 37.5 -98t97.5 -35t96.5 35t36.5 98v657q0 63 -36.5 98t-96.5 35t-97.5 -35t-37.5 -98zM295 1673h197
l202 -323h-153l-148 235l-147 -235h-152zM446 1870v33q0 159 199 159q95 0 143 -35t48 -98q0 -41 -17.5 -77t-41.5 -60.5t-48 -47t-39.5 -47t-13.5 -50.5h-82q-11 41 4.5 77t40.5 59.5t47.5 58.5t22.5 71q0 53 -76 53q-43 0 -60.5 -15t-17.5 -48v-33h-109z" />
    <glyph glyph-name="uni1ED6" unicode="&#x1ed6;" horiz-adv-x="827" 
d="M743 1311v-1018q0 -147 -94 -234.5t-235 -87.5q-142 0 -236 87.5t-94 234.5v1018q0 147 94 234t236 87q141 0 235 -87t94 -234zM270 1309v-1014q0 -67 39.5 -104t104.5 -37t104 37t39 104v1014q0 67 -39 104t-104 37t-104.5 -37t-39.5 -104zM137 2144l-74 66
q38 78 89 116.5t124 38.5q55 0 103 -24.5t90.5 -49t85.5 -24.5q88 0 135 100l74 -65q-77 -158 -207 -158q-52 0 -100 25t-93.5 49.5t-91.5 24.5q-89 0 -135 -99zM313 2025h197l203 -323h-154l-147 235l-148 -235h-151z" />
    <glyph glyph-name="uni1ED7" unicode="&#x1ed7;" horiz-adv-x="790" 
d="M707 965v-678q0 -137 -89.5 -220t-222.5 -83q-134 0 -222.5 82.5t-88.5 220.5v678q0 138 88.5 220.5t222.5 82.5q133 0 222.5 -83t89.5 -220zM260 954v-657q0 -63 37.5 -98t97.5 -35t96.5 35t36.5 98v657q0 63 -36.5 98t-96.5 35t-97.5 -35t-37.5 -98zM119 1776l-74 65
q76 156 213 156q44 0 84 -15.5t65.5 -34t60.5 -34t69 -15.5q87 0 135 101l73 -66q-77 -157 -206 -157q-41 0 -80.5 15.5t-66.5 33.5t-64 33.5t-74 15.5q-90 0 -135 -98zM295 1673h197l202 -323h-153l-148 235l-147 -235h-152z" />
    <glyph glyph-name="uni1ED8" unicode="&#x1ed8;" horiz-adv-x="827" 
d="M743 1311v-1018q0 -147 -94 -234.5t-235 -87.5q-142 0 -236 87.5t-94 234.5v1018q0 147 94 234t236 87q141 0 235 -87t94 -234zM270 1309v-1014q0 -67 39.5 -104t104.5 -37t104 37t39 104v1014q0 67 -39 104t-104 37t-104.5 -37t-39.5 -104zM412 -117q53 0 80.5 -31
t27.5 -79q0 -50 -27.5 -82.5t-80.5 -32.5q-50 0 -77.5 32.5t-27.5 82.5q0 48 27.5 79t77.5 31zM313 2025h197l203 -323h-154l-147 235l-148 -235h-151z" />
    <glyph glyph-name="uni1ED9" unicode="&#x1ed9;" horiz-adv-x="790" 
d="M707 965v-678q0 -137 -89.5 -220t-222.5 -83q-134 0 -222.5 82.5t-88.5 220.5v678q0 138 88.5 220.5t222.5 82.5q133 0 222.5 -83t89.5 -220zM260 954v-657q0 -63 37.5 -98t97.5 -35t96.5 35t36.5 98v657q0 63 -36.5 98t-96.5 35t-97.5 -35t-37.5 -98zM393 -117
q53 0 81 -31t28 -79q0 -50 -28 -82.5t-81 -32.5q-50 0 -77 32.5t-27 82.5q0 48 27 79t77 31zM295 1673h197l202 -323h-153l-148 235l-147 -235h-152z" />
    <glyph glyph-name="uni1EDA" unicode="&#x1eda;" horiz-adv-x="1042" 
d="M420 2025h198l-219 -323h-159zM743 1311v-1018q0 -147 -94 -234.5t-235 -87.5q-142 0 -236 87.5t-94 234.5v1018q0 147 94 234t236 87q87 0 159.5 -35.5t116.5 -101.5q30 -10 58 -10q55 0 86.5 35.5t31.5 95.5v180h164v-127q0 -127 -64.5 -210t-189.5 -83q-27 0 -39 2
q6 -34 6 -67zM270 1309v-1014q0 -67 39.5 -104t104.5 -37t104 37t39 104v1014q0 67 -39 104t-104 37t-104.5 -37t-39.5 -104z" />
    <glyph glyph-name="uni1EDB" unicode="&#x1edb;" horiz-adv-x="937" 
d="M403 1673h199l-219 -323h-160zM707 965v-678q0 -137 -89.5 -220t-222.5 -83q-134 0 -222.5 82.5t-88.5 220.5v678q0 138 88.5 220.5t222.5 82.5q124 0 211 -74q12 -4 37 -4q55 0 87 35.5t32 95.5v180h164v-127q0 -124 -61 -206.5t-179 -86.5q21 -61 21 -116zM260 954
v-657q0 -63 37.5 -98t97.5 -35t96.5 35t36.5 98v657q0 63 -36.5 98t-96.5 35t-97.5 -35t-37.5 -98z" />
    <glyph glyph-name="uni1EDC" unicode="&#x1edc;" horiz-adv-x="1042" 
d="M209 2025h199l180 -323h-162zM743 1311v-1018q0 -147 -94 -234.5t-235 -87.5q-142 0 -236 87.5t-94 234.5v1018q0 147 94 234t236 87q87 0 159.5 -35.5t116.5 -101.5q30 -10 58 -10q55 0 86.5 35.5t31.5 95.5v180h164v-127q0 -127 -64.5 -210t-189.5 -83q-27 0 -39 2
q6 -34 6 -67zM270 1309v-1014q0 -67 39.5 -104t104.5 -37t104 37t39 104v1014q0 67 -39 104t-104 37t-104.5 -37t-39.5 -104z" />
    <glyph glyph-name="uni1EDD" unicode="&#x1edd;" horiz-adv-x="937" 
d="M190 1673h199l180 -323h-161zM707 965v-678q0 -137 -89.5 -220t-222.5 -83q-134 0 -222.5 82.5t-88.5 220.5v678q0 138 88.5 220.5t222.5 82.5q124 0 211 -74q12 -4 37 -4q55 0 87 35.5t32 95.5v180h164v-127q0 -124 -61 -206.5t-179 -86.5q21 -61 21 -116zM260 954v-657
q0 -63 37.5 -98t97.5 -35t96.5 35t36.5 98v657q0 63 -36.5 98t-96.5 35t-97.5 -35t-37.5 -98z" />
    <glyph glyph-name="uni1EDE" unicode="&#x1ede;" horiz-adv-x="1042" 
d="M743 1311v-1018q0 -147 -94 -234.5t-235 -87.5q-142 0 -236 87.5t-94 234.5v1018q0 147 94 234t236 87q87 0 159.5 -35.5t116.5 -101.5q30 -10 58 -10q55 0 86.5 35.5t31.5 95.5v180h164v-127q0 -127 -64.5 -210t-189.5 -83q-27 0 -39 2q6 -34 6 -67zM270 1309v-1014
q0 -67 39.5 -104t104.5 -37t104 37t39 104v1014q0 67 -39 104t-104 37t-104.5 -37t-39.5 -104zM219 1870v33q0 159 199 159q95 0 142.5 -35t47.5 -98q0 -41 -17 -77t-41.5 -60.5t-48 -47t-39 -47t-13.5 -50.5h-82q-9 39 -1 63.5t27 50.5t38.5 45.5t34.5 48t15 58.5
q0 27 -17.5 40t-57.5 13q-43 0 -60.5 -15t-17.5 -48v-33h-109z" />
    <glyph glyph-name="uni1EDF" unicode="&#x1edf;" horiz-adv-x="937" 
d="M707 965v-678q0 -137 -89.5 -220t-222.5 -83q-134 0 -222.5 82.5t-88.5 220.5v678q0 138 88.5 220.5t222.5 82.5q124 0 211 -74q12 -4 37 -4q55 0 87 35.5t32 95.5v180h164v-127q0 -124 -61 -206.5t-179 -86.5q21 -61 21 -116zM260 954v-657q0 -63 37.5 -98t97.5 -35
t96.5 35t36.5 98v657q0 63 -36.5 98t-96.5 35t-97.5 -35t-37.5 -98zM211 1518v32q0 160 199 160q95 0 142.5 -35t47.5 -98q0 -41 -17.5 -77t-41.5 -61t-48 -47.5t-39.5 -47t-13.5 -50.5h-82q-9 39 -1 63.5t27 50.5t39 46t35 48.5t15 58.5q0 53 -76 53q-43 0 -60.5 -15.5
t-17.5 -48.5v-32h-108z" />
    <glyph glyph-name="uni1EE0" unicode="&#x1ee0;" horiz-adv-x="1042" 
d="M135 1776l-74 65q76 156 213 156q44 0 84 -15.5t65.5 -34t60.5 -34t69 -15.5q87 0 135 101l74 -66q-77 -157 -207 -157q-41 0 -80.5 15.5t-66.5 33.5t-64 33.5t-74 15.5q-90 0 -135 -98zM743 1311v-1018q0 -147 -94 -234.5t-235 -87.5q-142 0 -236 87.5t-94 234.5v1018
q0 147 94 234t236 87q87 0 159.5 -35.5t116.5 -101.5q30 -10 58 -10q55 0 86.5 35.5t31.5 95.5v180h164v-127q0 -127 -64.5 -210t-189.5 -83q-27 0 -39 2q6 -34 6 -67zM270 1309v-1014q0 -67 39.5 -104t104.5 -37t104 37t39 104v1014q0 67 -39 104t-104 37t-104.5 -37
t-39.5 -104z" />
    <glyph glyph-name="uni1EE1" unicode="&#x1ee1;" horiz-adv-x="937" 
d="M127 1423l-74 66q76 156 213 156q44 0 84 -15.5t65.5 -34t60.5 -34t69 -15.5q87 0 135 101l74 -66q-77 -158 -207 -158q-41 0 -80.5 15.5t-66.5 34t-64 34t-74 15.5q-89 0 -135 -99zM707 965v-678q0 -137 -89.5 -220t-222.5 -83q-134 0 -222.5 82.5t-88.5 220.5v678
q0 138 88.5 220.5t222.5 82.5q124 0 211 -74q12 -4 37 -4q55 0 87 35.5t32 95.5v180h164v-127q0 -124 -61 -206.5t-179 -86.5q21 -61 21 -116zM260 954v-657q0 -63 37.5 -98t97.5 -35t96.5 35t36.5 98v657q0 63 -36.5 98t-96.5 35t-97.5 -35t-37.5 -98z" />
    <glyph glyph-name="uni1EE2" unicode="&#x1ee2;" horiz-adv-x="1042" 
d="M743 1311v-1018q0 -147 -94 -234.5t-235 -87.5q-142 0 -236 87.5t-94 234.5v1018q0 147 94 234t236 87q87 0 159.5 -35.5t116.5 -101.5q30 -10 58 -10q55 0 86.5 35.5t31.5 95.5v180h164v-127q0 -127 -64.5 -210t-189.5 -83q-27 0 -39 2q6 -34 6 -67zM270 1309v-1014
q0 -67 39.5 -104t104.5 -37t104 37t39 104v1014q0 67 -39 104t-104 37t-104.5 -37t-39.5 -104zM414 -117q53 0 80.5 -31t27.5 -79q0 -50 -27.5 -82.5t-80.5 -32.5q-50 0 -77.5 32.5t-27.5 82.5q0 48 27.5 79t77.5 31z" />
    <glyph glyph-name="uni1EE3" unicode="&#x1ee3;" horiz-adv-x="937" 
d="M707 965v-678q0 -137 -89.5 -220t-222.5 -83q-134 0 -222.5 82.5t-88.5 220.5v678q0 138 88.5 220.5t222.5 82.5q124 0 211 -74q12 -4 37 -4q55 0 87 35.5t32 95.5v180h164v-127q0 -124 -61 -206.5t-179 -86.5q21 -61 21 -116zM260 954v-657q0 -63 37.5 -98t97.5 -35
t96.5 35t36.5 98v657q0 63 -36.5 98t-96.5 35t-97.5 -35t-37.5 -98zM391 -117q53 0 81 -31t28 -79q0 -50 -28 -82.5t-81 -32.5q-50 0 -77 32.5t-27 82.5q0 48 27 79t77 31z" />
    <glyph glyph-name="uni1EE4" unicode="&#x1ee4;" horiz-adv-x="839" 
d="M90 1604h189v-1309q0 -67 39 -104t102 -37q66 0 105.5 36.5t39.5 104.5v1309h185v-1311q0 -147 -94.5 -234.5t-237.5 -87.5q-142 0 -235 87.5t-93 234.5v1311zM418 -117q53 0 80.5 -31t27.5 -79q0 -50 -27.5 -82.5t-80.5 -32.5q-50 0 -77.5 32.5t-27.5 82.5q0 48 27.5 79
t77.5 31z" />
    <glyph glyph-name="uni1EE5" unicode="&#x1ee5;" horiz-adv-x="817" 
d="M541 1251h182v-1251h-125l-31 70q-92 -86 -217 -86q-112 0 -186 78t-74 225v964h182v-925q0 -162 129 -162q74 0 140 63v1024zM406 -117q53 0 80.5 -31t27.5 -79q0 -50 -27.5 -82.5t-80.5 -32.5q-50 0 -77.5 32.5t-27.5 82.5q0 48 27.5 79t77.5 31z" />
    <glyph glyph-name="uni1EE6" unicode="&#x1ee6;" horiz-adv-x="839" 
d="M90 1604h189v-1309q0 -67 39 -104t102 -37q66 0 105.5 36.5t39.5 104.5v1309h185v-1311q0 -147 -94.5 -234.5t-237.5 -87.5q-142 0 -235 87.5t-93 234.5v1311zM227 1870v33q0 159 199 159q95 0 142.5 -35t47.5 -98q0 -41 -17 -77t-41.5 -60.5t-48 -47t-39 -47
t-13.5 -50.5h-82q-9 39 -1 63.5t27 50.5t38.5 45.5t34.5 48t15 58.5q0 27 -17.5 40t-57.5 13q-43 0 -60.5 -15t-17.5 -48v-33h-109z" />
    <glyph glyph-name="uni1EE7" unicode="&#x1ee7;" horiz-adv-x="817" 
d="M541 1251h182v-1251h-125l-31 70q-92 -86 -217 -86q-112 0 -186 78t-74 225v964h182v-925q0 -162 129 -162q74 0 140 63v1024zM219 1518v32q0 160 199 160q95 0 142.5 -35t47.5 -98q0 -41 -17 -77t-41.5 -61t-48 -47.5t-39 -47t-13.5 -50.5h-82q-9 39 -1 63.5t27 50.5
t38.5 46t34.5 48.5t15 58.5q0 27 -17.5 40t-57.5 13q-43 0 -60.5 -15.5t-17.5 -48.5v-32h-109z" />
    <glyph glyph-name="uni1EE8" unicode="&#x1ee8;" horiz-adv-x="1089" 
d="M434 2025h199l-219 -323h-160zM90 1604h189v-1309q0 -67 39 -104t102 -37q66 0 105.5 36.5t39.5 104.5v1309h185v-56q21 -6 45 -6q55 0 86.5 35.5t31.5 95.5v180h164v-127q0 -127 -64.5 -209.5t-189.5 -82.5q-35 0 -73 10v-1151q0 -147 -94.5 -234.5t-237.5 -87.5
q-142 0 -235 87.5t-93 234.5v1311z" />
    <glyph glyph-name="uni1EE9" unicode="&#x1ee9;" horiz-adv-x="1032" 
d="M422 1673h199l-220 -323h-159zM541 1251h182v-61q65 0 99 35t34 96v180h164v-127q0 -127 -64.5 -210t-189.5 -83q-29 0 -43 2v-1083h-125l-31 70q-92 -86 -217 -86q-112 0 -186 78t-74 225v964h182v-925q0 -162 129 -162q74 0 140 63v1024z" />
    <glyph glyph-name="uni1EEA" unicode="&#x1eea;" horiz-adv-x="1089" 
d="M219 2025h199l180 -323h-162zM90 1604h189v-1309q0 -67 39 -104t102 -37q66 0 105.5 36.5t39.5 104.5v1309h185v-56q21 -6 45 -6q55 0 86.5 35.5t31.5 95.5v180h164v-127q0 -127 -64.5 -209.5t-189.5 -82.5q-35 0 -73 10v-1151q0 -147 -94.5 -234.5t-237.5 -87.5
q-142 0 -235 87.5t-93 234.5v1311z" />
    <glyph glyph-name="uni1EEB" unicode="&#x1eeb;" horiz-adv-x="1032" 
d="M205 1673h198l181 -323h-162zM541 1251h182v-61q65 0 99 35t34 96v180h164v-127q0 -127 -64.5 -210t-189.5 -83q-29 0 -43 2v-1083h-125l-31 70q-92 -86 -217 -86q-112 0 -186 78t-74 225v964h182v-925q0 -162 129 -162q74 0 140 63v1024z" />
    <glyph glyph-name="uni1EEC" unicode="&#x1eec;" horiz-adv-x="1089" 
d="M90 1604h189v-1309q0 -67 39 -104t102 -37q66 0 105.5 36.5t39.5 104.5v1309h185v-56q21 -6 45 -6q55 0 86.5 35.5t31.5 95.5v180h164v-127q0 -127 -64.5 -209.5t-189.5 -82.5q-35 0 -73 10v-1151q0 -147 -94.5 -234.5t-237.5 -87.5q-142 0 -235 87.5t-93 234.5v1311z
M236 1870v33q0 159 198 159q95 0 143 -35t48 -98q0 -41 -17.5 -77t-41.5 -60.5t-48 -47t-39.5 -47t-13.5 -50.5h-82q-11 41 4.5 77t40.5 59.5t47.5 58.5t22.5 71q0 53 -76 53q-43 0 -60.5 -15t-17.5 -48v-33h-108z" />
    <glyph glyph-name="uni1EED" unicode="&#x1eed;" horiz-adv-x="1032" 
d="M541 1251h182v-61q65 0 99 35t34 96v180h164v-127q0 -127 -64.5 -210t-189.5 -83q-29 0 -43 2v-1083h-125l-31 70q-92 -86 -217 -86q-112 0 -186 78t-74 225v964h182v-925q0 -162 129 -162q74 0 140 63v1024zM221 1518v32q0 160 199 160q95 0 142.5 -35t47.5 -98
q0 -41 -17 -77t-41.5 -61t-48 -47.5t-39 -47t-13.5 -50.5h-82q-9 39 -1 63.5t27 50.5t38.5 46t34.5 48.5t15 58.5q0 27 -17.5 40t-57.5 13q-43 0 -60.5 -15.5t-17.5 -48.5v-32h-109z" />
    <glyph glyph-name="uni1EEE" unicode="&#x1eee;" horiz-adv-x="1089" 
d="M145 1776l-73 65q76 156 213 156q44 0 84 -15.5t65 -34t60 -34t69 -15.5q87 0 135 101l74 -66q-77 -157 -207 -157q-52 0 -99.5 24.5t-93 49t-91.5 24.5q-91 0 -136 -98zM90 1604h189v-1309q0 -67 39 -104t102 -37q66 0 105.5 36.5t39.5 104.5v1309h185v-56q21 -6 45 -6
q55 0 86.5 35.5t31.5 95.5v180h164v-127q0 -127 -64.5 -209.5t-189.5 -82.5q-35 0 -73 10v-1151q0 -147 -94.5 -234.5t-237.5 -87.5q-142 0 -235 87.5t-93 234.5v1311z" />
    <glyph glyph-name="uni1EEF" unicode="&#x1eef;" horiz-adv-x="1032" 
d="M133 1423l-74 66q76 156 213 156q44 0 84 -15.5t65.5 -34t60.5 -34t69 -15.5q87 0 135 101l74 -66q-77 -158 -207 -158q-41 0 -80.5 15.5t-66.5 34t-64 34t-74 15.5q-89 0 -135 -99zM541 1251h182v-61q65 0 99 35t34 96v180h164v-127q0 -127 -64.5 -210t-189.5 -83
q-29 0 -43 2v-1083h-125l-31 70q-92 -86 -217 -86q-112 0 -186 78t-74 225v964h182v-925q0 -162 129 -162q74 0 140 63v1024z" />
    <glyph glyph-name="uni1EF0" unicode="&#x1ef0;" horiz-adv-x="1089" 
d="M90 1604h189v-1309q0 -67 39 -104t102 -37q66 0 105.5 36.5t39.5 104.5v1309h185v-56q21 -6 45 -6q55 0 86.5 35.5t31.5 95.5v180h164v-127q0 -127 -64.5 -209.5t-189.5 -82.5q-35 0 -73 10v-1151q0 -147 -94.5 -234.5t-237.5 -87.5q-142 0 -235 87.5t-93 234.5v1311z
M426 -117q53 0 81 -31t28 -79q0 -50 -28 -82.5t-81 -32.5q-50 0 -77 32.5t-27 82.5q0 48 27 79t77 31z" />
    <glyph glyph-name="uni1EF1" unicode="&#x1ef1;" horiz-adv-x="1032" 
d="M541 1251h182v-61q65 0 99 35t34 96v180h164v-127q0 -127 -64.5 -210t-189.5 -83q-29 0 -43 2v-1083h-125l-31 70q-92 -86 -217 -86q-112 0 -186 78t-74 225v964h182v-925q0 -162 129 -162q74 0 140 63v1024zM410 -117q53 0 80.5 -31t27.5 -79q0 -50 -27.5 -82.5
t-80.5 -32.5q-50 0 -77.5 32.5t-27.5 82.5q0 48 27.5 79t77.5 31z" />
    <glyph glyph-name="Ygrave" unicode="&#x1ef2;" horiz-adv-x="843" 
d="M27 1604h190l207 -623l211 623h182l-301 -854v-750h-188v750zM215 2025h199l180 -323h-162z" />
    <glyph glyph-name="ygrave" unicode="&#x1ef3;" horiz-adv-x="817" 
d="M541 1251h182v-1601h-182v418q-85 -64 -191 -64q-112 0 -186 78t-74 225v944h182v-905q0 -162 129 -162q73 0 140 64v1003zM203 1673h198l181 -323h-162z" />
    <glyph glyph-name="endash" unicode="&#x2013;" horiz-adv-x="899" 
d="M55 852h787v-150h-787v150z" />
    <glyph glyph-name="emdash" unicode="&#x2014;" horiz-adv-x="1345" 
d="M55 852h1233v-150h-1233v150z" />
    <glyph glyph-name="quoteleft" unicode="&#x2018;" horiz-adv-x="327" 
d="M217 1632h66l-19 -413q-2 -52 -27.5 -82.5t-76.5 -30.5q-53 0 -81 32t-28 79q0 33 23 86z" />
    <glyph glyph-name="quoteright" unicode="&#x2019;" horiz-adv-x="327" 
d="M248 1448l-144 -330h-65l18 412q2 52 28 82t77 30q53 0 80.5 -31.5t27.5 -78.5q0 -36 -22 -84z" />
    <glyph glyph-name="quotesinglbase" unicode="&#x201a;" horiz-adv-x="327" 
d="M248 25l-144 -330h-65l18 411q2 52 28 82.5t77 30.5q53 0 80.5 -31.5t27.5 -78.5q0 -36 -22 -84z" />
    <glyph glyph-name="quotedblleft" unicode="&#x201c;" horiz-adv-x="622" 
d="M512 1632h66l-19 -413q-2 -52 -27.5 -82.5t-76.5 -30.5q-53 0 -81 32t-28 79q0 33 23 86zM217 1632h66l-19 -413q-2 -52 -27.5 -82.5t-76.5 -30.5q-53 0 -81 32t-28 79q0 33 23 86z" />
    <glyph glyph-name="quotedblright" unicode="&#x201d;" horiz-adv-x="622" 
d="M543 1448l-144 -330h-65l18 412q2 52 28 82t77 30q53 0 80.5 -31.5t27.5 -78.5q0 -36 -22 -84zM248 1448l-144 -330h-65l18 412q2 52 28 82t77 30q53 0 80.5 -31.5t27.5 -78.5q0 -36 -22 -84z" />
    <glyph glyph-name="quotedblbase" unicode="&#x201e;" horiz-adv-x="622" 
d="M543 25l-144 -330h-65l18 411q2 52 28 82.5t77 30.5q53 0 80.5 -31.5t27.5 -78.5q0 -36 -22 -84zM248 25l-144 -330h-65l18 411q2 52 28 82.5t77 30.5q53 0 80.5 -31.5t27.5 -78.5q0 -36 -22 -84z" />
    </font>
</defs>
</svg>
